The Doors – The Soft Parade (Remastered)




Artist: The Doors
Year: 1969/1989
Genre: Rock
Notes: Discogs
Add. Notes: Remastered
Cover incl.: Yes
Encoder: FLAC
Bitrate: ~900 kBit/s (44.1 kHz/16 Bit/s)
Log & Cue incl.: Yes
Size: 213,9 MB
Password: “slam” (without ” “)


All Downloads/Hosters are compatible

Download 1
Turbobit.net
Rapidgator.net
UploadEver.com
KatFile.com
UsersDrive.com
Download 2
Turbobit.net
Rapidgator.net
UploadEver.com
KatFile.com
UsersDrive.com
Download 3
Turbobit.net
Rapidgator.net
UploadEver.com
KatFile.com
UsersDrive.com

Tracklist:

1 - Tell All The People - 3:24
2 - Touch Me - 3:15
3 - Shaman's Blues - 4:45
4 - Do It - 3:01
5 - Easy Ride - 2:35
6 - Wild Child - 2:36
7 - Runnin' Blue - 2:27
8 - Wishful Sinful - 2:56
9 - The Soft Parade - 8:40

EAC-Log, CUE-Sheed & NFO:

Click to open spoiler
Exact Audio Copy V1.0 beta 2 from 29. April 2011

EAC extraction logfile from 10. July 2011, 2:18

The Doors / The Soft Parade

Used drive : PLEXTOR DVDR PX-L890SA Adapter: 2 ID: 1

Read mode : Secure
Utilize accurate stream : Yes
Defeat audio cache : Yes
Make use of C2 pointers : No

Read offset correction : 6
Overread into Lead-In and Lead-Out : No
Fill up missing offset samples with silence : Yes
Delete leading and trailing silent blocks : No
Null samples used in CRC calculations : Yes
Used interface : Native Win32 interface for Win NT & 2000
Gap handling : Appended to previous track

Used output format : User Defined Encoder
Selected bitrate : 256 kBit/s
Quality : High
Add ID3 tag : No
Command line compressor : C:\Program Files (x86)\Exact Audio Copy\FLAC\FLAC.EXE
Additional command line options : -8 -V -T “ARTIST=%artist%” -T “TITLE=%title%” -T “ALBUM=%albumtitle%” -T “DATE=%year%” -T “TRACKNUMBER=%tracknr%” -T “TOTALTRACKS=%numtracks%” -T “GENRE=%genre%” -T “ALBUMARTIST=%albumartist%” -T “ALBUM ARTIST=%albumartist%

TOC of the extracted CD

Track | Start | Length | Start sector | End sector
———————————————————
1 | 0:00.00 | 3:21.47 | 0 | 15121
2 | 3:21.47 | 3:12.14 | 15122 | 29535
3 | 6:33.61 | 4:50.56 | 29536 | 51341
4 | 11:24.42 | 3:10.32 | 51342 | 65623
5 | 14:34.74 | 2:40.71 | 65624 | 77694
6 | 17:15.70 | 2:38.00 | 77695 | 89544
7 | 19:53.70 | 2:29.56 | 89545 | 100775
8 | 22:23.51 | 3:00.00 | 100776 | 114275
9 | 25:23.51 | 9:41.17 | 114276 | 157867

Track 1

Filename F:\Flac Rips\01 – Tell All The People.wav

Pre-gap length 0:00:02.00

Peak level 89.0 %
Extraction speed 3.2 X
Track quality 100.0 %
Test CRC CD1E3D77
Copy CRC CD1E3D77
Track not present in AccurateRip database
Copy OK

Track 2

Filename F:\Flac Rips\02 – Touch Me.wav

Peak level 82.7 %
Extraction speed 3.6 X
Track quality 100.0 %
Test CRC 35361380
Copy CRC 35361380
Track not present in AccurateRip database
Copy OK

Track 3

Filename F:\Flac Rips\03 – Shaman’s Blues.wav

Peak level 83.4 %
Extraction speed 4.1 X
Track quality 100.0 %
Test CRC 792814A9
Copy CRC 792814A9
Track not present in AccurateRip database
Copy OK

Track 4

Filename F:\Flac Rips\04 – Do It.wav

Peak level 82.7 %
Extraction speed 4.2 X
Track quality 100.0 %
Test CRC 8F6A91EC
Copy CRC 8F6A91EC
Track not present in AccurateRip database
Copy OK

Track 5

Filename F:\Flac Rips\05 – Easy Ride.wav

Peak level 87.8 %
Extraction speed 4.2 X
Track quality 100.0 %
Test CRC F6E1A55A
Copy CRC F6E1A55A
Track not present in AccurateRip database
Copy OK

Track 6

Filename F:\Flac Rips\06 – Wild Child.wav

Peak level 84.1 %
Extraction speed 3.3 X
Track quality 99.9 %
Test CRC 4A13C5E9
Copy CRC 4A13C5E9
Track not present in AccurateRip database
Copy OK

Track 7

Filename F:\Flac Rips\07 – Runnin’ Blue.wav

Peak level 79.7 %
Extraction speed 3.3 X
Track quality 99.9 %
Test CRC 1B451FBC
Copy CRC 1B451FBC
Track not present in AccurateRip database
Copy OK

Track 8

Filename F:\Flac Rips\08 – Wishful Sinful.wav

Peak level 85.9 %
Extraction speed 4.8 X
Track quality 100.0 %
Test CRC 372E7D74
Copy CRC 372E7D74
Track not present in AccurateRip database
Copy OK

Track 9

Filename F:\Flac Rips\09 – The Soft Parade.wav

Peak level 83.3 %
Extraction speed 5.9 X
Track quality 100.0 %
Test CRC 52781D58
Copy CRC 52781D58
Track not present in AccurateRip database
Copy OK

None of the tracks are present in the AccurateRip database

No errors occurred

End of status report

==== Log checksum 4532EAC19173600C76C9B36BD57F2CDAB767F1069FC00DC4215C62D06FF20B83 ====

REM ACCURATERIPID 000ab558-004eb72a-76083809
REM GENRE “Psychedelic Rock”
REM DATE 1969
REM DISCID 76083809
REM COMMENT “ExactAudioCopy v1.0b2”
PERFORMER “The Doors”
TITLE “The Soft Parade”
FILE “The Soft Parade.flac” WAVE
TRACK 01 AUDIO
TITLE “Tell All The People”
PERFORMER “The Doors”
INDEX 01 00:00:00
TRACK 02 AUDIO
TITLE “Touch Me”
PERFORMER “The Doors”
INDEX 01 03:21:47
TRACK 03 AUDIO
TITLE “Shaman’s Blues”
PERFORMER “The Doors”
INDEX 01 06:33:61
TRACK 04 AUDIO
TITLE “Do It”
PERFORMER “The Doors”
INDEX 01 11:24:42
TRACK 05 AUDIO
TITLE “Easy Ride”
PERFORMER “The Doors”
INDEX 01 14:34:74
TRACK 06 AUDIO
TITLE “Wild Child”
PERFORMER “The Doors”
INDEX 01 17:15:70
TRACK 07 AUDIO
TITLE “Runnin’ Blue”
PERFORMER “The Doors”
INDEX 01 19:53:70
TRACK 08 AUDIO
TITLE “Wishful Sinful”
PERFORMER “The Doors”
INDEX 01 22:23:51
TRACK 09 AUDIO
TITLE “The Soft Parade”
PERFORMER “The Doors”
INDEX 01 25:23:51


Leave a Reply

Your email address will not be published. Required fields are marked *

This site uses Akismet to reduce spam. Learn how your comment data is processed.