The Doors – The Soft Parade (Limited Remastered Edition)




Artist: The Doors
Year: 1969/2009
Genre: Rock
Notes: Discogs
Add. Notes: Limited Remastered Edition
Cover incl.: Yes
Encoder: FLAC
Bitrate: ~800 kBit/s (44.1 kHz/16 Bit/s)
Log & Cue incl.: Yes
Size: 315,68 MB
Password: “slam” (without ” “)


All Downloads/Hosters are compatible

Download 1
Turbobit.net
Rapidgator.net
UploadEver.com
KatFile.com
UsersDrive.com
Download 2
Turbobit.net
Rapidgator.net
UploadEver.com
KatFile.com
UsersDrive.com
Download 3
Turbobit.net
Rapidgator.net
UploadEver.com
KatFile.com
UsersDrive.com

Tracklist:

1 - Tell All The People - 3:24
2 - Touch Me - 3:15
3 - Shaman's Blues - 4:45
4 - Do It - 3:01
5 - Easy Ride - 2:35
6 - Wild Child - 2:36
7 - Runnin' Blue - 2:27
8 - Wishful Sinful - 2:56
9 - The Soft Parade - 8:40
Bonus Tracks
10 - Touch Me (40th Anniversary Remix) - 3:16
11 - The Soft Parade (40th Anniversary Remix) - 9:36

EAC-Log, CUE-Sheed & NFO:

Click to open spoiler
Exact Audio Copy V0.99 prebeta 5 from 4. May 2009

EAC extraction logfile from 20. August 2009, 11:32

The Doors / The Soft Parade {2009 Audio Fidelity 24 KT + Gold, AFZ 038}

Used drive : DVDRW IDE 16X Adapter: 1 ID: 1

Read mode : Secure
Utilize accurate stream : Yes
Defeat audio cache : Yes
Make use of C2 pointers : No

Read offset correction : 12
Overread into Lead-In and Lead-Out : No
Fill up missing offset samples with silence : Yes
Delete leading and trailing silent blocks : No
Null samples used in CRC calculations : Yes
Used interface : Native Win32 interface for Win NT & 2000
Gap handling : Appended to previous track

Used output format : User Defined Encoder
Selected bitrate : 320 kBit/s
Quality : High
Add ID3 tag : No
Command line compressor : C:\Program Files\FLAC\flac.exe
Additional command line options : -8 -V -T “ARTIST=%a” -T “TITLE=%t” -T “ALBUM=%g” -T “DATE=%y” -T “TRACKNUMBER=%n” -T “GENRE=%m” -T “COMMENT=EAC FLAC 1.2.1 -8” %s

TOC of the extracted CD

Track | Start | Length | Start sector | End sector
———————————————————
1 | 0:00.00 | 3:26.42 | 0 | 15491
2 | 3:26.42 | 3:18.51 | 15492 | 30392
3 | 6:45.18 | 4:53.15 | 30393 | 52382
4 | 11:38.33 | 3:12.30 | 52383 | 66812
5 | 14:50.63 | 2:46.08 | 66813 | 79270
6 | 17:36.71 | 2:39.38 | 79271 | 91233
7 | 20:16.34 | 2:30.38 | 91234 | 102521
8 | 22:46.72 | 3:03.14 | 102522 | 116260
9 | 25:50.11 | 8:46.54 | 116261 | 155764
10 | 34:36.65 | 3:16.36 | 155765 | 170500
11 | 37:53.26 | 9:36.66 | 170501 | 213766

Track 1

Filename E:\The Doors – The Soft Parade (1969) [FLAC] {2009 Audio Fidelity 24 KT + Gold, AFZ 038} (Ltd. Numbered Ed.)\01 – Tell All The People.wav

Pre-gap length 0:00:02.00

Peak level 80.9 %
Track quality 99.9 %
Test CRC 611D04B3
Copy CRC 611D04B3
Track not present in AccurateRip database
Copy OK

Track 2

Filename E:\The Doors – The Soft Parade (1969) [FLAC] {2009 Audio Fidelity 24 KT + Gold, AFZ 038} (Ltd. Numbered Ed.)\02 – Touch Me.wav

Peak level 98.5 %
Track quality 100.0 %
Test CRC C208D4DE
Copy CRC C208D4DE
Track not present in AccurateRip database
Copy OK

Track 3

Filename E:\The Doors – The Soft Parade (1969) [FLAC] {2009 Audio Fidelity 24 KT + Gold, AFZ 038} (Ltd. Numbered Ed.)\03 – Shaman’s Blues.wav

Peak level 83.6 %
Track quality 99.9 %
Test CRC 6666360B
Copy CRC 6666360B
Track not present in AccurateRip database
Copy OK

Track 4

Filename E:\The Doors – The Soft Parade (1969) [FLAC] {2009 Audio Fidelity 24 KT + Gold, AFZ 038} (Ltd. Numbered Ed.)\04 – Do It.wav

Peak level 86.7 %
Track quality 100.0 %
Test CRC 04E5AA49
Copy CRC 04E5AA49
Track not present in AccurateRip database
Copy OK

Track 5

Filename E:\The Doors – The Soft Parade (1969) [FLAC] {2009 Audio Fidelity 24 KT + Gold, AFZ 038} (Ltd. Numbered Ed.)\05 – Easy Ride.wav

Peak level 86.6 %
Track quality 100.0 %
Test CRC BFC33593
Copy CRC BFC33593
Track not present in AccurateRip database
Copy OK

Track 6

Filename E:\The Doors – The Soft Parade (1969) [FLAC] {2009 Audio Fidelity 24 KT + Gold, AFZ 038} (Ltd. Numbered Ed.)\06 – Wild Child.wav

Peak level 98.2 %
Track quality 100.0 %
Test CRC 4C9BE1C0
Copy CRC 4C9BE1C0
Track not present in AccurateRip database
Copy OK

Track 7

Filename E:\The Doors – The Soft Parade (1969) [FLAC] {2009 Audio Fidelity 24 KT + Gold, AFZ 038} (Ltd. Numbered Ed.)\07 – Runnin’ Blue.wav

Peak level 89.9 %
Track quality 100.0 %
Test CRC D22E90B5
Copy CRC D22E90B5
Track not present in AccurateRip database
Copy OK

Track 8

Filename E:\The Doors – The Soft Parade (1969) [FLAC] {2009 Audio Fidelity 24 KT + Gold, AFZ 038} (Ltd. Numbered Ed.)\08 – Wishful Sinful.wav

Peak level 96.1 %
Track quality 100.0 %
Test CRC E83E0DCB
Copy CRC E83E0DCB
Track not present in AccurateRip database
Copy OK

Track 9

Filename E:\The Doors – The Soft Parade (1969) [FLAC] {2009 Audio Fidelity 24 KT + Gold, AFZ 038} (Ltd. Numbered Ed.)\09 – The Soft Parade.wav

Peak level 98.4 %
Track quality 100.0 %
Test CRC BDEF492F
Copy CRC BDEF492F
Track not present in AccurateRip database
Copy OK

Track 10

Filename E:\The Doors – The Soft Parade (1969) [FLAC] {2009 Audio Fidelity 24 KT + Gold, AFZ 038} (Ltd. Numbered Ed.)\10 – Touch Me (40th Anniversary Remix).wav

Pre-gap length 0:00:08.71

Peak level 98.8 %
Track quality 100.0 %
Test CRC 63299787
Copy CRC 63299787
Track not present in AccurateRip database
Copy OK

Track 11

Filename E:\The Doors – The Soft Parade (1969) [FLAC] {2009 Audio Fidelity 24 KT + Gold, AFZ 038} (Ltd. Numbered Ed.)\11 – The Soft Parade (40th Anniversary Remix).wav

Peak level 98.8 %
Track quality 100.0 %
Test CRC A71E0E7B
Copy CRC A71E0E7B
Track not present in AccurateRip database
Copy OK

None of the tracks are present in the AccurateRip database

No errors occurred

End of status report

REM GENRE “Classic Rock”
REM DATE 1969
REM DISCID 8B0B220B
REM COMMENT “ExactAudioCopy v0.99pb5”
PERFORMER “The Doors”
TITLE “The Soft Parade [2009 Audio Fidelity AFZ 038]”
FILE “01 – Tell All The People.wav” WAVE
TRACK 01 AUDIO
TITLE “Tell All The People”
PERFORMER “The Doors”
INDEX 01 00:00:00
FILE “02 – Touch Me.wav” WAVE
TRACK 02 AUDIO
TITLE “Touch Me”
PERFORMER “The Doors”
INDEX 01 00:00:00
FILE “03 – Shaman’s Blues.wav” WAVE
TRACK 03 AUDIO
TITLE “Shaman’s Blues”
PERFORMER “The Doors”
INDEX 01 00:00:00
FILE “04 – Do It.wav” WAVE
TRACK 04 AUDIO
TITLE “Do It”
PERFORMER “The Doors”
INDEX 01 00:00:00
FILE “05 – Easy Ride.wav” WAVE
TRACK 05 AUDIO
TITLE “Easy Ride”
PERFORMER “The Doors”
INDEX 01 00:00:00
FILE “06 – Wild Child.wav” WAVE
TRACK 06 AUDIO
TITLE “Wild Child”
PERFORMER “The Doors”
INDEX 01 00:00:00
FILE “07 – Runnin’ Blue.wav” WAVE
TRACK 07 AUDIO
TITLE “Runnin’ Blue”
PERFORMER “The Doors”
INDEX 01 00:00:00
FILE “08 – Wishful Sinful.wav” WAVE
TRACK 08 AUDIO
TITLE “Wishful Sinful”
PERFORMER “The Doors”
INDEX 01 00:00:00
FILE “09 – The Soft Parade.wav” WAVE
TRACK 09 AUDIO
TITLE “The Soft Parade”
PERFORMER “The Doors”
INDEX 01 00:00:00
TRACK 10 AUDIO
TITLE “Touch Me (40th Anniversary Remix)”
PERFORMER “The Doors”
INDEX 00 08:37:58
FILE “10 – Touch Me (40th Anniversary Remix).wav” WAVE
INDEX 01 00:00:00
FILE “11 – The Soft Parade (40th Anniversary Remix).wav” WAVE
TRACK 11 AUDIO
TITLE “The Soft Parade (40th Anniversary Remix)”
PERFORMER “The Doors”
INDEX 01 00:00:00

Leave a Reply

Your email address will not be published. Required fields are marked *

Enter the text from the image below
 

This site uses Akismet to reduce spam. Learn how your comment data is processed.