The Doors – The Doors




Artist: The Doors
Year: 1967/1991
Genre: Rock
Notes: Discogs
Add. Notes:
Cover incl.: Yes
Encoder: FLAC
Bitrate: ~900 kBit/s (44.1 kHz/16 Bit/s)
Log & Cue incl.: Yes
Size: 272,82 MB
Password: “slam” (without ” “)


All Downloads/Hosters are compatible

Download 1
Turbobit.net
Rapidgator.net
UploadEver.com
KatFile.com
UsersDrive.com
Download 2
Turbobit.net
Rapidgator.net
UploadEver.com
KatFile.com
UsersDrive.com
Download 3
Turbobit.net
Rapidgator.net
UploadEver.com
KatFile.com
UsersDrive.com

Tracklist:

1 - Break On Through (To The Other Side) - 2:25
2 - Soul Kitchen - 3:30
3 - The Crystal Ship - 2:30
4 - Twentieth Century Fox - 2:30
5 - Alabama Song (Whisky Bar) - 3:15
6 - Light My Fire - 6:30
7 - Back Door Man - 3:30
8 - I Looked At You - 2:18
9 - End Of The Night - 2:49
10 - Take It As It Comes - 2:13
11 - The End - 11:35

EAC-Log, CUE-Sheed & NFO:

Click to open spoiler
Exact Audio Copy V1.0 beta 2 from 29. April 2011

EAC extraction logfile from 9. July 2011, 21:41

The Doors / The Doors (40th Anniversary Mixes)

Used drive : PLEXTOR DVDR PX-L890SA Adapter: 2 ID: 1

Read mode : Secure
Utilize accurate stream : Yes
Defeat audio cache : Yes
Make use of C2 pointers : No

Read offset correction : 6
Overread into Lead-In and Lead-Out : No
Fill up missing offset samples with silence : Yes
Delete leading and trailing silent blocks : No
Null samples used in CRC calculations : Yes
Used interface : Native Win32 interface for Win NT & 2000
Gap handling : Appended to previous track

Used output format : User Defined Encoder
Selected bitrate : 256 kBit/s
Quality : High
Add ID3 tag : No
Command line compressor : C:\Program Files (x86)\Exact Audio Copy\FLAC\FLAC.EXE
Additional command line options : -8 -V -T “ARTIST=%artist%” -T “TITLE=%title%” -T “ALBUM=%albumtitle%” -T “DATE=%year%” -T “TRACKNUMBER=%tracknr%” -T “TOTALTRACKS=%numtracks%” -T “GENRE=%genre%” -T “ALBUMARTIST=%albumartist%” -T “ALBUM ARTIST=%albumartist%

TOC of the extracted CD

Track | Start | Length | Start sector | End sector
———————————————————
1 | 0:00.00 | 2:27.12 | 0 | 11036
2 | 2:27.12 | 3:32.20 | 11037 | 26956
3 | 5:59.32 | 2:32.34 | 26957 | 38390
4 | 8:31.66 | 2:32.26 | 38391 | 49816
5 | 11:04.17 | 3:17.18 | 49817 | 64609
6 | 14:21.35 | 7:00.33 | 64610 | 96142
7 | 21:21.68 | 3:34.34 | 96143 | 112226
8 | 24:56.27 | 2:22.69 | 112227 | 122945
9 | 27:19.21 | 2:50.16 | 122946 | 135711
10 | 30:09.37 | 2:15.33 | 135712 | 145869
11 | 32:24.70 | 11:39.02 | 145870 | 198296

Track 1

Filename F:\Flac Rips\01 – Break On Through.wav

Pre-gap length 0:00:02.00

Peak level 100.0 %
Extraction speed 3.0 X
Track quality 100.0 %
Test CRC 9DDC119E
Copy CRC 9DDC119E
Track not present in AccurateRip database
Copy OK

Track 2

Filename F:\Flac Rips\02 – Soul Kitchen.wav

Pre-gap length 0:00:00.01

Peak level 100.0 %
Extraction speed 3.6 X
Track quality 100.0 %
Test CRC 778E8E04
Copy CRC 778E8E04
Track not present in AccurateRip database
Copy OK

Track 3

Filename F:\Flac Rips\03 – The Crystal Ship.wav

Pre-gap length 0:00:00.01

Peak level 100.0 %
Extraction speed 3.6 X
Track quality 100.0 %
Test CRC FC04A3F5
Copy CRC FC04A3F5
Track not present in AccurateRip database
Copy OK

Track 4

Filename F:\Flac Rips\04 – Twentieth Century Fox.wav

Pre-gap length 0:00:00.01

Peak level 100.0 %
Extraction speed 3.8 X
Track quality 100.0 %
Test CRC F1750462
Copy CRC F1750462
Track not present in AccurateRip database
Copy OK

Track 5

Filename F:\Flac Rips\05 – Alabama Song.wav

Pre-gap length 0:00:00.01

Peak level 100.0 %
Extraction speed 4.2 X
Track quality 100.0 %
Test CRC CF8A500E
Copy CRC CF8A500E
Track not present in AccurateRip database
Copy OK

Track 6

Filename F:\Flac Rips\06 – Light My Fire.wav

Pre-gap length 0:00:00.01

Peak level 100.0 %
Extraction speed 5.0 X
Track quality 100.0 %
Test CRC A59FBC01
Copy CRC A59FBC01
Track not present in AccurateRip database
Copy OK

Track 7

Filename F:\Flac Rips\07 – Back Door Man.wav

Pre-gap length 0:00:00.01

Peak level 100.0 %
Extraction speed 4.0 X
Track quality 99.9 %
Test CRC 750C260E
Copy CRC 750C260E
Track not present in AccurateRip database
Copy OK

Track 8

Filename F:\Flac Rips\08 – I Looked At You.wav

Pre-gap length 0:00:00.01

Peak level 100.0 %
Extraction speed 4.7 X
Track quality 100.0 %
Test CRC D6F5BC79
Copy CRC D6F5BC79
Track not present in AccurateRip database
Copy OK

Track 9

Filename F:\Flac Rips\09 – End Of The Night.wav

Pre-gap length 0:00:00.01

Peak level 100.0 %
Extraction speed 5.0 X
Track quality 100.0 %
Test CRC 4B9254C7
Copy CRC 4B9254C7
Track not present in AccurateRip database
Copy OK

Track 10

Filename F:\Flac Rips\10 – Take It As It Comes.wav

Pre-gap length 0:00:00.01

Peak level 100.0 %
Extraction speed 3.5 X
Track quality 99.9 %
Test CRC D4763FEB
Copy CRC D4763FEB
Track not present in AccurateRip database
Copy OK

Track 11

Filename F:\Flac Rips\11 – The End.wav

Pre-gap length 0:00:00.01

Peak level 100.0 %
Extraction speed 6.4 X
Track quality 100.0 %
Test CRC FC0E664C
Copy CRC FC0E664C
Track not present in AccurateRip database
Copy OK

None of the tracks are present in the AccurateRip database

No errors occurred

End of status report

==== Log checksum 5A4CDA7AD2FB4D4BAD4362E907044DE1D7D0725189FF76FDEFD378389E4BE2C3 ====

REM ACCURATERIPID 000f4a17-0087fbe0-950a530b
REM GENRE “Psychedelic Rock”
REM DATE 1967
REM DISCID 950A530B
REM COMMENT “ExactAudioCopy v1.0b2”
PERFORMER “The Doors”
TITLE “The Doors (40th Anniversary Mixes)”
FILE “The Doors.flac” WAVE
TRACK 01 AUDIO
TITLE “Break On Through”
PERFORMER “The Doors”
INDEX 01 00:00:00
TRACK 02 AUDIO
TITLE “Soul Kitchen”
PERFORMER “The Doors”
INDEX 00 02:27:11
INDEX 01 02:27:12
TRACK 03 AUDIO
TITLE “The Crystal Ship”
PERFORMER “The Doors”
INDEX 00 05:59:31
INDEX 01 05:59:32
TRACK 04 AUDIO
TITLE “Twentieth Century Fox”
PERFORMER “The Doors”
INDEX 00 08:31:65
INDEX 01 08:31:66
TRACK 05 AUDIO
TITLE “Alabama Song”
PERFORMER “The Doors”
INDEX 00 11:04:16
INDEX 01 11:04:17
TRACK 06 AUDIO
TITLE “Light My Fire ”
PERFORMER “The Doors”
INDEX 00 14:21:34
INDEX 01 14:21:35
TRACK 07 AUDIO
TITLE “Back Door Man”
PERFORMER “The Doors”
INDEX 00 21:21:67
INDEX 01 21:21:68
TRACK 08 AUDIO
TITLE “I Looked At You”
PERFORMER “The Doors”
INDEX 00 24:56:26
INDEX 01 24:56:27
TRACK 09 AUDIO
TITLE “End Of The Night ”
PERFORMER “The Doors”
INDEX 00 27:19:20
INDEX 01 27:19:21
TRACK 10 AUDIO
TITLE “Take It As It Comes”
PERFORMER “The Doors”
INDEX 00 30:09:36
INDEX 01 30:09:37
TRACK 11 AUDIO
TITLE “The End”
PERFORMER “The Doors”
INDEX 00 32:24:69
INDEX 01 32:24:70

Leave a Reply

Your email address will not be published. Required fields are marked *

This site uses Akismet to reduce spam. Learn how your comment data is processed.