The Doors – Strange Days




Artist: The Doors
Year: 1967/1985
Genre: Rock
Notes: Discogs
Add. Notes:
Cover incl.: Yes
Encoder: FLAC
Bitrate: ~800 kBit/s (44.1 kHz/16 Bit/s)
Log & Cue incl.: Yes
Size: 209,35 MB
Password: “slam” (without ” “)


All Downloads/Hosters are compatible

Download 1
Turbobit.net
Rapidgator.net
UploadEver.com
KatFile.com
UsersDrive.com
Download 2
Turbobit.net
Rapidgator.net
UploadEver.com
KatFile.com
UsersDrive.com
Download 3
Turbobit.net
Rapidgator.net
UploadEver.com
KatFile.com
UsersDrive.com

Tracklist:

1 - Strange Days - 3:05
2 - You're Lost Little Girl - 3:01
3 - Love Me Two Times - 3:23
4 - Unhappy Girl - 2:00
5 - Horse Latitudes - 1:30
6 - Moonlight Drive - 3:00
7 - People Are Strange - 2:10
8 - My Eyes Have Seen You - 2:22
9 - I Can't See Your Face In My Mind - 3:18
10 - When The Music's Over - 11:00

EAC-Log, CUE-Sheed & NFO:

Click to open spoiler
Exact Audio Copy V1.0 beta 2 from 29. April 2011

EAC extraction logfile from 9. July 2011, 22:18

The Doors / Strange Days (40th Anniversary Mixes)

Used drive : PLEXTOR DVDR PX-L890SA Adapter: 2 ID: 1

Read mode : Secure
Utilize accurate stream : Yes
Defeat audio cache : Yes
Make use of C2 pointers : No

Read offset correction : 6
Overread into Lead-In and Lead-Out : No
Fill up missing offset samples with silence : Yes
Delete leading and trailing silent blocks : No
Null samples used in CRC calculations : Yes
Used interface : Native Win32 interface for Win NT & 2000
Gap handling : Appended to previous track

Used output format : User Defined Encoder
Selected bitrate : 256 kBit/s
Quality : High
Add ID3 tag : No
Command line compressor : C:\Program Files (x86)\Exact Audio Copy\FLAC\FLAC.EXE
Additional command line options : -8 -V -T “ARTIST=%artist%” -T “TITLE=%title%” -T “ALBUM=%albumtitle%” -T “DATE=%year%” -T “TRACKNUMBER=%tracknr%” -T “TOTALTRACKS=%numtracks%” -T “GENRE=%genre%” -T “ALBUMARTIST=%albumartist%” -T “ALBUM ARTIST=%albumartist%

TOC of the extracted CD

Track | Start | Length | Start sector | End sector
———————————————————
1 | 0:00.00 | 3:09.35 | 0 | 14209
2 | 3:09.35 | 3:05.10 | 14210 | 28094
3 | 6:14.45 | 3:15.54 | 28095 | 42773
4 | 9:30.24 | 1:57.17 | 42774 | 51565
5 | 11:27.41 | 1:34.65 | 51566 | 58680
6 | 13:02.31 | 3:05.12 | 58681 | 72567
7 | 16:07.43 | 2:11.67 | 72568 | 82459
8 | 18:19.35 | 2:31.57 | 82460 | 93841
9 | 20:51.17 | 3:24.37 | 93842 | 109178
10 | 24:15.54 | 11:08.04 | 109179 | 159282

Track 1

Filename F:\Flac Rips\01 – Strange Days.wav

Pre-gap length 0:00:02.00

Peak level 94.8 %
Extraction speed 3.2 X
Track quality 100.0 %
Test CRC 9FA8ECCA
Copy CRC 9FA8ECCA
Track not present in AccurateRip database
Copy OK

Track 2

Filename F:\Flac Rips\02 – You’re Lost Little Girl.wav

Peak level 94.7 %
Extraction speed 3.5 X
Track quality 100.0 %
Test CRC EE9B0690
Copy CRC EE9B0690
Track not present in AccurateRip database
Copy OK

Track 3

Filename F:\Flac Rips\03 – Love Me Two Times.wav

Peak level 94.8 %
Extraction speed 3.8 X
Track quality 100.0 %
Test CRC B9FCCEEB
Copy CRC B9FCCEEB
Track not present in AccurateRip database
Copy OK

Track 4

Filename F:\Flac Rips\04 – Unhappy Girl.wav

Peak level 100.0 %
Extraction speed 3.6 X
Track quality 100.0 %
Test CRC 21820BF6
Copy CRC 21820BF6
Track not present in AccurateRip database
Copy OK

Track 5

Filename F:\Flac Rips\05 – Horse Latitudes.wav

Peak level 94.5 %
Extraction speed 3.5 X
Track quality 100.0 %
Test CRC 1318FCEB
Copy CRC 1318FCEB
Track not present in AccurateRip database
Copy OK

Track 6

Filename F:\Flac Rips\06 – Moonlight Drive.wav

Peak level 95.2 %
Extraction speed 4.3 X
Track quality 100.0 %
Test CRC 0E301AEA
Copy CRC 0E301AEA
Track not present in AccurateRip database
Copy OK

Track 7

Filename F:\Flac Rips\07 – People Are Strange.wav

Peak level 100.0 %
Extraction speed 4.2 X
Track quality 100.0 %
Test CRC 4B458A36
Copy CRC 4B458A36
Track not present in AccurateRip database
Copy OK

Track 8

Filename F:\Flac Rips\08 – My Eyes Have Seen You.wav

Peak level 95.4 %
Extraction speed 4.4 X
Track quality 100.0 %
Test CRC 50D5E61C
Copy CRC 50D5E61C
Track not present in AccurateRip database
Copy OK

Track 9

Filename F:\Flac Rips\09 – I Can’t See Your Face In My Mind.wav

Peak level 94.6 %
Extraction speed 3.9 X
Track quality 99.9 %
Test CRC E01D8D17
Copy CRC E01D8D17
Track not present in AccurateRip database
Copy OK

Track 10

Filename F:\Flac Rips\10 – When The Music’s Over.wav

Peak level 94.9 %
Extraction speed 5.9 X
Track quality 100.0 %
Test CRC 4165E4AC
Copy CRC 4165E4AC
Track not present in AccurateRip database
Copy OK

None of the tracks are present in the AccurateRip database

No errors occurred

End of status report

==== Log checksum C0D26686677E0B0EFCBCDBE4B1987134C6F22963391974EE02D72EC517A6CD40 ====

REM ACCURATERIPID 000adfd2-0057bc5f-8c084b0a
REM GENRE “Psychedelic Rock”
REM DATE 1967
REM DISCID 8C084B0A
REM COMMENT “ExactAudioCopy v1.0b2”
PERFORMER “The Doors”
TITLE “Strange Days (40th Anniversary Mixes)”
FILE “Strange Days.flac” WAVE
TRACK 01 AUDIO
TITLE “Strange Days”
PERFORMER “The Doors”
INDEX 01 00:00:00
TRACK 02 AUDIO
TITLE “You’re Lost Little Girl”
PERFORMER “The Doors”
INDEX 01 03:09:35
TRACK 03 AUDIO
TITLE “Love Me Two Times”
PERFORMER “The Doors”
INDEX 01 06:14:45
TRACK 04 AUDIO
TITLE “Unhappy Girl”
PERFORMER “The Doors”
INDEX 01 09:30:24
TRACK 05 AUDIO
TITLE “Horse Latitudes”
PERFORMER “The Doors”
INDEX 01 11:27:41
TRACK 06 AUDIO
TITLE “Moonlight Drive”
PERFORMER “The Doors”
INDEX 01 13:02:31
TRACK 07 AUDIO
TITLE “People Are Strange”
PERFORMER “The Doors”
INDEX 01 16:07:43
TRACK 08 AUDIO
TITLE “My Eyes Have Seen You”
PERFORMER “The Doors”
INDEX 01 18:19:35
TRACK 09 AUDIO
TITLE “I Can’t See Your Face In My Mind”
PERFORMER “The Doors”
INDEX 01 20:51:17
TRACK 10 AUDIO
TITLE “When The Music’s Over”
PERFORMER “The Doors”
INDEX 01 24:15:54

Leave a Reply

Your email address will not be published. Required fields are marked *

This site uses Akismet to reduce spam. Learn how your comment data is processed.