The Doors – Morrison Hotel




Artist: The Doors
Year: 1970/1991
Genre: Rock
Notes: Discogs
Add. Notes:
Cover incl.: Yes
Encoder: FLAC
Bitrate: ~800 kBit/s (44.1 kHz/16 Bit/s)
Log & Cue incl.: Yes
Size: 228,82 MB
Password: “slam” (without ” “)


All Downloads/Hosters are compatible

Download 1
Turbobit.net
Rapidgator.net
UploadEver.com
KatFile.com
UsersDrive.com
Download 2
Turbobit.net
Rapidgator.net
UploadEver.com
KatFile.com
UsersDrive.com
Download 3
Turbobit.net
Rapidgator.net
UploadEver.com
KatFile.com
UsersDrive.com

Tracklist:

Hard Rock Cafe
1. Roadhouse Blues 4:04
2. Waiting For The Sun 3:58
3. You Make Me Real 2:50
4. Peace Frog 2:52
5. Blue Sunday 2:08
6. Ship Of Fools 3:06
Morrison Hotel
7. Land Ho! 4:08
8. The Spy 4:15
9. Queen Of The Highway 2:47
10. Indian Summer 2:33
11. Maggie M'Gill 4:24

EAC-Log, CUE-Sheed & NFO:

Click to open spoiler
Exact Audio Copy V1.0 beta 2 from 29. April 2011

EAC extraction logfile from 10. July 2011, 2:55

The Doors / Morrison Hotel

Used drive : PLEXTOR DVDR PX-L890SA Adapter: 2 ID: 1

Read mode : Secure
Utilize accurate stream : Yes
Defeat audio cache : Yes
Make use of C2 pointers : No

Read offset correction : 6
Overread into Lead-In and Lead-Out : No
Fill up missing offset samples with silence : Yes
Delete leading and trailing silent blocks : No
Null samples used in CRC calculations : Yes
Used interface : Native Win32 interface for Win NT & 2000
Gap handling : Appended to previous track

Used output format : User Defined Encoder
Selected bitrate : 256 kBit/s
Quality : High
Add ID3 tag : No
Command line compressor : C:\Program Files (x86)\Exact Audio Copy\FLAC\FLAC.EXE
Additional command line options : -8 -V -T “ARTIST=%artist%” -T “TITLE=%title%” -T “ALBUM=%albumtitle%” -T “DATE=%year%” -T “TRACKNUMBER=%tracknr%” -T “TOTALTRACKS=%numtracks%” -T “GENRE=%genre%” -T “ALBUMARTIST=%albumartist%” -T “ALBUM ARTIST=%albumartist%

TOC of the extracted CD

Track | Start | Length | Start sector | End sector
———————————————————
1 | 0:00.00 | 4:08.11 | 0 | 18610
2 | 4:08.11 | 4:02.44 | 18611 | 36804
3 | 8:10.55 | 2:54.25 | 36805 | 49879
4 | 11:05.05 | 2:51.65 | 49880 | 62769
5 | 13:56.70 | 2:10.46 | 62770 | 72565
6 | 16:07.41 | 3:17.17 | 72566 | 87357
7 | 19:24.58 | 4:14.15 | 87358 | 106422
8 | 23:38.73 | 4:21.18 | 106423 | 126015
9 | 28:00.16 | 2:52.02 | 126016 | 138917
10 | 30:52.18 | 2:37.06 | 138918 | 150698
11 | 33:29.24 | 4:17.51 | 150699 | 170024

Track 1

Filename F:\Flac Rips\01 – Roadhouse Blues.wav

Pre-gap length 0:00:02.00

Peak level 90.6 %
Extraction speed 3.3 X
Track quality 100.0 %
Test CRC 3CC27EF5
Copy CRC 3CC27EF5
Track not present in AccurateRip database
Copy OK

Track 2

Filename F:\Flac Rips\02 – Waiting For The Sun.wav

Peak level 88.1 %
Extraction speed 3.8 X
Track quality 100.0 %
Test CRC 574D7B44
Copy CRC 574D7B44
Track not present in AccurateRip database
Copy OK

Track 3

Filename F:\Flac Rips\03 – You Make Me Real.wav

Peak level 91.7 %
Extraction speed 3.8 X
Track quality 100.0 %
Test CRC F33F1D45
Copy CRC F33F1D45
Track not present in AccurateRip database
Copy OK

Track 4

Filename F:\Flac Rips\04 – Peace Frog.wav

Peak level 87.0 %
Extraction speed 4.1 X
Track quality 100.0 %
Test CRC 8738F139
Copy CRC 8738F139
Track not present in AccurateRip database
Copy OK

Track 5

Filename F:\Flac Rips\05 – Blue Sunday.wav

Peak level 83.5 %
Extraction speed 4.0 X
Track quality 100.0 %
Test CRC 5F80FD6D
Copy CRC 5F80FD6D
Track not present in AccurateRip database
Copy OK

Track 6

Filename F:\Flac Rips\06 – Ship Of Fools.wav

Peak level 91.5 %
Extraction speed 3.5 X
Track quality 99.9 %
Test CRC 0F477265
Copy CRC 0F477265
Track not present in AccurateRip database
Copy OK

Track 7

Filename F:\Flac Rips\07 – Land Ho!.wav

Peak level 89.1 %
Extraction speed 5.0 X
Track quality 100.0 %
Test CRC FC3266FB
Copy CRC FC3266FB
Track not present in AccurateRip database
Copy OK

Track 8

Filename F:\Flac Rips\08 – The Spy.wav

Peak level 88.2 %
Extraction speed 4.3 X
Track quality 99.9 %
Test CRC 56259B2E
Copy CRC 56259B2E
Track not present in AccurateRip database
Copy OK

Track 9

Filename F:\Flac Rips\09 – Queen Of The Highway.wav

Peak level 90.1 %
Extraction speed 5.1 X
Track quality 100.0 %
Test CRC CCA74AF1
Copy CRC CCA74AF1
Track not present in AccurateRip database
Copy OK

Track 10

Filename F:\Flac Rips\10 – Indian Summer.wav

Peak level 54.9 %
Extraction speed 5.2 X
Track quality 100.0 %
Test CRC 6D3E28DC
Copy CRC 6D3E28DC
Track not present in AccurateRip database
Copy OK

Track 11

Filename F:\Flac Rips\11 – Maggie M’Gill.wav

Peak level 87.4 %
Extraction speed 5.8 X
Track quality 100.0 %
Test CRC BBF56FD5
Copy CRC BBF56FD5
Track not present in AccurateRip database
Copy OK

None of the tracks are present in the AccurateRip database

No errors occurred

End of status report

==== Log checksum 7955246353079DF0F1B9C53EBD85FF8A5C3AC023B8E49DAE5677A82F0421B849 ====

REM ACCURATERIPID 000f90a7-0085fb3f-9208db0b
REM GENRE “Blues-Rock”
REM DATE 1970
REM DISCID 9208DB0B
REM COMMENT “ExactAudioCopy v1.0b2”
PERFORMER “The Doors”
TITLE “Morrison Hotel”
FILE “Morrison Hotel.flac” WAVE
TRACK 01 AUDIO
TITLE “Roadhouse Blues”
PERFORMER “The Doors”
INDEX 01 00:00:00
TRACK 02 AUDIO
TITLE “Waiting For The Sun”
PERFORMER “The Doors”
INDEX 01 04:08:11
TRACK 03 AUDIO
TITLE “You Make Me Real”
PERFORMER “The Doors”
INDEX 01 08:10:55
TRACK 04 AUDIO
TITLE “Peace Frog”
PERFORMER “The Doors”
INDEX 01 11:05:05
TRACK 05 AUDIO
TITLE “Blue Sunday”
PERFORMER “The Doors”
INDEX 01 13:56:70
TRACK 06 AUDIO
TITLE “Ship Of Fools”
PERFORMER “The Doors”
INDEX 01 16:07:41
TRACK 07 AUDIO
TITLE “Land Ho! ”
PERFORMER “The Doors”
INDEX 01 19:24:58
TRACK 08 AUDIO
TITLE “The Spy”
PERFORMER “The Doors”
INDEX 01 23:38:73
TRACK 09 AUDIO
TITLE “Queen Of The Highway”
PERFORMER “The Doors”
INDEX 01 28:00:16
TRACK 10 AUDIO
TITLE “Indian Summer”
PERFORMER “The Doors”
INDEX 01 30:52:18
TRACK 11 AUDIO
TITLE “Maggie M’Gill”
PERFORMER “The Doors”
INDEX 01 33:29:24


Leave a Reply

Your email address will not be published. Required fields are marked *

This site uses Akismet to reduce spam. Learn how your comment data is processed.