The Doors – L.A. Woman




Artist: The Doors
Year: 1971/1999
Genre: Rock
Notes: Discogs
Add. Notes:
Cover incl.: No
Encoder: FLAC
Bitrate: ~900 kBit/s (44.1 kHz/16 Bit/s)
Log & Cue incl.: Yes
Size: 307,28 MB
Password: “slam” (without ” “)


All Downloads/Hosters are compatible

Download 1
Turbobit.net
Rapidgator.net
UploadEver.com
KatFile.com
UsersDrive.com
Download 2
Turbobit.net
Rapidgator.net
UploadEver.com
KatFile.com
UsersDrive.com
Download 3
Turbobit.net
Rapidgator.net
UploadEver.com
KatFile.com
UsersDrive.com

Tracklist:

1 - The Changeling - 4:20
2 - Love Her Madly - 3:18
3 - Been Down So Long - 4:40
4 - Cars Hiss By My Window - 4:10
5 - L.A. Woman - 7:49
6 - L'America - 4:35
7 - Hyacinth House - 3:10
8 - Crawling King Snake - 4:57
9 - The Wasp (Texas Radio And The Big Beat) - 4:12
10 - Riders On The Storm - 7:14

EAC-Log, CUE-Sheed & NFO:

Click to open spoiler
Exact Audio Copy V1.0 beta 2 from 29. April 2011

EAC extraction logfile from 10. July 2011, 3:41

The Doors / LA Woman (40th Anniversary Mixes)

Used drive : PLEXTOR DVDR PX-L890SA Adapter: 2 ID: 1

Read mode : Secure
Utilize accurate stream : Yes
Defeat audio cache : Yes
Make use of C2 pointers : No

Read offset correction : 6
Overread into Lead-In and Lead-Out : No
Fill up missing offset samples with silence : Yes
Delete leading and trailing silent blocks : No
Null samples used in CRC calculations : Yes
Used interface : Native Win32 interface for Win NT & 2000
Gap handling : Appended to previous track

Used output format : User Defined Encoder
Selected bitrate : 256 kBit/s
Quality : High
Add ID3 tag : No
Command line compressor : C:\Program Files (x86)\Exact Audio Copy\FLAC\FLAC.EXE
Additional command line options : -8 -V -T “ARTIST=%artist%” -T “TITLE=%title%” -T “ALBUM=%albumtitle%” -T “DATE=%year%” -T “TRACKNUMBER=%tracknr%” -T “TOTALTRACKS=%numtracks%” -T “GENRE=%genre%” -T “ALBUMARTIST=%albumartist%” -T “ALBUM ARTIST=%albumartist%

TOC of the extracted CD

Track | Start | Length | Start sector | End sector
———————————————————
1 | 0:00.00 | 4:25.03 | 0 | 19877
2 | 4:25.03 | 3:39.38 | 19878 | 36340
3 | 8:04.41 | 4:44.27 | 36341 | 57667
4 | 12:48.68 | 4:58.74 | 57668 | 80091
5 | 17:47.67 | 7:59.44 | 80092 | 116060
6 | 25:47.36 | 4:34.08 | 116061 | 136618
7 | 30:21.44 | 3:13.02 | 136619 | 151095
8 | 33:34.46 | 5:01.05 | 151096 | 173675
9 | 38:35.51 | 4:16.33 | 173676 | 192908
10 | 42:52.09 | 7:08.48 | 192909 | 225056

Track 1

Filename F:\Flac Rips\01 – The Changeling.wav

Pre-gap length 0:00:02.00

Peak level 95.8 %
Extraction speed 3.4 X
Track quality 100.0 %
Test CRC 59752FCD
Copy CRC 59752FCD
Track not present in AccurateRip database
Copy OK

Track 2

Filename F:\Flac Rips\02 – Love Her Madly.wav

Peak level 97.5 %
Extraction speed 3.8 X
Track quality 100.0 %
Test CRC 0360AAE7
Copy CRC 0360AAE7
Track not present in AccurateRip database
Copy OK

Track 3

Filename F:\Flac Rips\03 – Been Down So Long.wav

Peak level 97.1 %
Extraction speed 4.2 X
Track quality 100.0 %
Test CRC 5CB521DC
Copy CRC 5CB521DC
Track not present in AccurateRip database
Copy OK

Track 4

Filename F:\Flac Rips\04 – Cars Hiss By My Window.wav

Peak level 95.9 %
Extraction speed 4.6 X
Track quality 100.0 %
Test CRC 63D4F7C5
Copy CRC 63D4F7C5
Track not present in AccurateRip database
Copy OK

Track 5

Filename F:\Flac Rips\05 – LA Woman.wav

Peak level 96.3 %
Extraction speed 5.3 X
Track quality 100.0 %
Test CRC 296D1D9F
Copy CRC 296D1D9F
Track not present in AccurateRip database
Copy OK

Track 6

Filename F:\Flac Rips\06 – L’America.wav

Peak level 94.6 %
Extraction speed 5.4 X
Track quality 100.0 %
Test CRC 3FE18CFD
Copy CRC 3FE18CFD
Track not present in AccurateRip database
Copy OK

Track 7

Filename F:\Flac Rips\07 – Hyacinth House.wav

Peak level 96.3 %
Extraction speed 5.3 X
Track quality 100.0 %
Test CRC 73355FBE
Copy CRC 73355FBE
Track not present in AccurateRip database
Copy OK

Track 8

Filename F:\Flac Rips\08 – Crawling King Snake.wav

Peak level 100.0 %
Extraction speed 5.9 X
Track quality 100.0 %
Test CRC D7957087
Copy CRC D7957087
Track not present in AccurateRip database
Copy OK

Track 9

Filename F:\Flac Rips\09 – The WASP.wav

Peak level 96.7 %
Extraction speed 6.1 X
Track quality 100.0 %
Test CRC 8EA0B790
Copy CRC 8EA0B790
Track not present in AccurateRip database
Copy OK

Track 10

Filename F:\Flac Rips\10 – Riders On The Storm.wav

Peak level 96.6 %
Extraction speed 6.1 X
Track quality 99.9 %
Test CRC 406856C3
Copy CRC 406856C3
Track not present in AccurateRip database
Copy OK

None of the tracks are present in the AccurateRip database

No errors occurred

End of status report

==== Log checksum A4E987AEC75341D83F82238DEDE5925752552D390C407B805B847B48ABE7295A ====

REM ACCURATERIPID 00122615-00929fdc-8a0bb80a
REM GENRE “Blues-rock”
REM DATE 1971
REM DISCID 8A0BB80A
REM COMMENT “ExactAudioCopy v1.0b2”
PERFORMER “The Doors”
TITLE “LA Woman (40th Anniversary Mixes)”
FILE “L.A.Woman.flac” WAVE
TRACK 01 AUDIO
TITLE “The Changeling”
PERFORMER “The Doors”
INDEX 01 00:00:00
TRACK 02 AUDIO
TITLE “Love Her Madly”
PERFORMER “The Doors”
INDEX 01 04:25:03
TRACK 03 AUDIO
TITLE “Been Down So Long”
PERFORMER “The Doors”
INDEX 01 08:04:41
TRACK 04 AUDIO
TITLE “Cars Hiss By My Window”
PERFORMER “The Doors”
INDEX 01 12:48:68
TRACK 05 AUDIO
TITLE “LA Woman ”
PERFORMER “The Doors”
INDEX 01 17:47:67
TRACK 06 AUDIO
TITLE “L’America”
PERFORMER “The Doors”
INDEX 01 25:47:36
TRACK 07 AUDIO
TITLE “Hyacinth House”
PERFORMER “The Doors”
INDEX 01 30:21:44
TRACK 08 AUDIO
TITLE “Crawling King Snake”
PERFORMER “The Doors”
INDEX 01 33:34:46
TRACK 09 AUDIO
TITLE “The WASP”
PERFORMER “The Doors”
INDEX 01 38:35:51
TRACK 10 AUDIO
TITLE “Riders On The Storm”
PERFORMER “The Doors”
INDEX 01 42:52:09


Leave a Reply

Your email address will not be published. Required fields are marked *

This site uses Akismet to reduce spam. Learn how your comment data is processed.