The Damned – Strawberries (Remastered Deluxe Edition)




No Cover available

Artist: The Damned
Year: 1982/2005
Genre: Rock
Notes: Discogs
Add. Notes: Remastered Deluxe Edition
Watch Songs on: YouTube
Cover incl.: Yes
Encoder: FLAC
Bitrate: ~900 kBit/s (44.1 kHz/16 Bit/s)
Log & Cue incl.: Yes/Yes
Size: 467,4 MB
Password: “slam” (without ” “)


All Downloads/Hosters are compatible

Download 1
KatFile.com
Turbobit.net
Rapidgator.net
FileFactory.com
Download 2
KatFile.com
Turbobit.net
Rapidgator.net
FileFactory.com

Tracklist:

1 Ignite 4:52
2 Generals 3:23
3 Stranger On The Town 5:14
4 Dozen Girls 4:33
5 The Dog 7:20
6 Gun Fury (Of Riot Forces) 2:56
7 Pleasure And The Pain 3:52
8 The Missing Link 0:30
9 Life Goes On 4:03
10 Bad Time For Bonzo 3:47
11 Under The Floor Again 5:03
12 Don't Bother Me 2:11

Bonus Tracks
13 Lovely Money (Extended) 6:56
14 I Think I'm Wonderful 2:55
15 Take That 2:47
16 Mine's A Large One Landlord 1:15
17 Torture Me 1:24
18 Disguise 3:28
19 Rat Vs The Omni 0:45
20 Citadel Zombies 1:57
21 Bimbo Jingle 0:08

EAC-Log, CUE-Sheed & NFO:

Click to open spoiler
Exact Audio Copy V0.99 prebeta 4 from 23. January 2008

EAC extraction logfile from 21. August 2009, 2:19

The Damned / Strawberries

Used drive : LITE-ON DVDRW SHW-160P6S Adapter: 0 ID: 0

Read mode : Secure
Utilize accurate stream : Yes
Defeat audio cache : Yes
Make use of C2 pointers : No

Read offset correction : 6
Overread into Lead-In and Lead-Out : No
Fill up missing offset samples with silence : Yes
Delete leading and trailing silent blocks : No
Null samples used in CRC calculations : Yes
Used interface : Native Win32 interface for Win NT & 2000
Gap handling : Appended to previous track

Used output format : User Defined Encoder
Selected bitrate : 192 kBit/s
Quality : High
Add ID3 tag : No
Command line compressor : C:\Program Files\FLAC\flac.exe
Additional command line options : -V -8 -T “artist=%a” -T “title=%t” -T “album=%g” -T “date=%y” -T “tracknumber=%n” -T “genre=%m” %s

TOC of the extracted CD

Track | Start | Length | Start sector | End sector
———————————————————
1 | 0:00.00 | 4:52.71 | 0 | 21970
2 | 4:52.71 | 3:23.37 | 21971 | 37232
3 | 8:16.33 | 5:14.19 | 37233 | 60801
4 | 13:30.52 | 4:33.55 | 60802 | 81331
5 | 18:04.32 | 7:20.19 | 81332 | 114350
6 | 25:24.51 | 2:56.63 | 114351 | 127613
7 | 28:21.39 | 3:52.55 | 127614 | 145068
8 | 32:14.19 | 0:30.45 | 145069 | 147363
9 | 32:44.64 | 4:03.29 | 147364 | 165617
10 | 36:48.18 | 3:47.74 | 165618 | 182716
11 | 40:36.17 | 5:03.24 | 182717 | 205465
12 | 45:39.41 | 2:11.30 | 205466 | 215320
13 | 47:50.71 | 6:56.20 | 215321 | 246540
14 | 54:47.16 | 2:55.51 | 246541 | 259716
15 | 57:42.67 | 2:47.62 | 259717 | 272303
16 | 60:30.54 | 1:15.28 | 272304 | 277956
17 | 61:46.07 | 1:24.02 | 277957 | 284258
18 | 63:10.09 | 3:28.32 | 284259 | 299890
19 | 66:38.41 | 0:45.34 | 299891 | 303299
20 | 67:24.00 | 1:57.54 | 303300 | 312128
21 | 69:21.54 | 0:08.44 | 312129 | 312772

Track 1

Filename C:\Documents and Settings\evan purchell\Desktop\1982 – Strawberries\01 – Ignite.wav

Pre-gap length 0:00:02.00

Peak level 97.9 %
Track quality 100.0 %
Test CRC F3969940
Copy CRC F3969940
Track not present in AccurateRip database
Copy OK

Track 2

Filename C:\Documents and Settings\evan purchell\Desktop\1982 – Strawberries\02 – Generals.wav

Peak level 82.4 %
Track quality 100.0 %
Test CRC 1B0AF875
Copy CRC 1B0AF875
Track not present in AccurateRip database
Copy OK

Track 3

Filename C:\Documents and Settings\evan purchell\Desktop\1982 – Strawberries\03 – Stranger on the Town.wav

Peak level 87.3 %
Track quality 100.0 %
Test CRC C338313C
Copy CRC C338313C
Track not present in AccurateRip database
Copy OK

Track 4

Filename C:\Documents and Settings\evan purchell\Desktop\1982 – Strawberries\04 – Dozen Girls.wav

Peak level 97.9 %
Track quality 100.0 %
Test CRC 9F65309F
Copy CRC 9F65309F
Track not present in AccurateRip database
Copy OK

Track 5

Filename C:\Documents and Settings\evan purchell\Desktop\1982 – Strawberries\05 – The Dog.wav

Peak level 87.3 %
Track quality 100.0 %
Test CRC 3073E630
Copy CRC 3073E630
Track not present in AccurateRip database
Copy OK

Track 6

Filename C:\Documents and Settings\evan purchell\Desktop\1982 – Strawberries\06 – Gun Fury (of Riot Forces).wav

Peak level 87.3 %
Track quality 100.0 %
Test CRC 20D33A32
Copy CRC 20D33A32
Track not present in AccurateRip database
Copy OK

Track 7

Filename C:\Documents and Settings\evan purchell\Desktop\1982 – Strawberries\07 – Pleasure and the Pain.wav

Peak level 97.9 %
Track quality 100.0 %
Test CRC 0F15AADA
Copy CRC 0F15AADA
Track not present in AccurateRip database
Copy OK

Track 8

Filename C:\Documents and Settings\evan purchell\Desktop\1982 – Strawberries\08 – The Missing Link.wav

Peak level 51.4 %
Track quality 100.0 %
Test CRC 777E4A0F
Copy CRC 777E4A0F
Track not present in AccurateRip database
Copy OK

Track 9

Filename C:\Documents and Settings\evan purchell\Desktop\1982 – Strawberries\09 – Life Goes On.wav

Peak level 87.3 %
Track quality 99.9 %
Test CRC 510D5A06
Copy CRC 510D5A06
Track not present in AccurateRip database
Copy OK

Track 10

Filename C:\Documents and Settings\evan purchell\Desktop\1982 – Strawberries\10 – Bad Time For Bonzo.wav

Peak level 91.4 %
Track quality 100.0 %
Test CRC 5F2507F7
Copy CRC 5F2507F7
Track not present in AccurateRip database
Copy OK

Track 11

Filename C:\Documents and Settings\evan purchell\Desktop\1982 – Strawberries\11 – Under the Floor Again.wav

Peak level 97.9 %
Track quality 100.0 %
Test CRC EF01D098
Copy CRC EF01D098
Track not present in AccurateRip database
Copy OK

Track 12

Filename C:\Documents and Settings\evan purchell\Desktop\1982 – Strawberries\12 – Don’t Bother Me.wav

Peak level 85.3 %
Track quality 100.0 %
Test CRC 6C55F835
Copy CRC 6C55F835
Track not present in AccurateRip database
Copy OK

Track 13

Filename C:\Documents and Settings\evan purchell\Desktop\1982 – Strawberries\13 – Lovely Money.wav

Peak level 99.2 %
Track quality 100.0 %
Test CRC 7AC8F2BA
Copy CRC 7AC8F2BA
Track not present in AccurateRip database
Copy OK

Track 14

Filename C:\Documents and Settings\evan purchell\Desktop\1982 – Strawberries\14 – I Think I’m Wonderful.wav

Peak level 91.4 %
Track quality 100.0 %
Test CRC C4571D22
Copy CRC C4571D22
Track not present in AccurateRip database
Copy OK

Track 15

Filename C:\Documents and Settings\evan purchell\Desktop\1982 – Strawberries\15 – Take That.wav

Peak level 97.9 %
Track quality 100.0 %
Test CRC 3F80D6C8
Copy CRC 3F80D6C8
Track not present in AccurateRip database
Copy OK

Track 16

Filename C:\Documents and Settings\evan purchell\Desktop\1982 – Strawberries\16 – Mine’s A Large One Landlord.wav

Peak level 69.3 %
Track quality 99.8 %
Test CRC A203E026
Copy CRC A203E026
Track not present in AccurateRip database
Copy OK

Track 17

Filename C:\Documents and Settings\evan purchell\Desktop\1982 – Strawberries\17 – Torture Me.wav

Peak level 75.1 %
Track quality 99.8 %
Test CRC 42B57BCA
Copy CRC 42B57BCA
Track not present in AccurateRip database
Copy OK

Track 18

Filename C:\Documents and Settings\evan purchell\Desktop\1982 – Strawberries\18 – Disguise.wav

Peak level 97.9 %
Track quality 100.0 %
Test CRC 7F18F1F5
Copy CRC 7F18F1F5
Track not present in AccurateRip database
Copy OK

Track 19

Filename C:\Documents and Settings\evan purchell\Desktop\1982 – Strawberries\19 – Rat Vs. The Omni.wav

Peak level 97.9 %
Track quality 100.0 %
Test CRC 97E5FBD7
Copy CRC 97E5FBD7
Track not present in AccurateRip database
Copy OK

Track 20

Filename C:\Documents and Settings\evan purchell\Desktop\1982 – Strawberries\20 – Citadel Zombies.wav

Peak level 97.9 %
Track quality 100.0 %
Test CRC 9E20E8AB
Copy CRC 9E20E8AB
Track not present in AccurateRip database
Copy OK

Track 21

Filename C:\Documents and Settings\evan purchell\Desktop\1982 – Strawberries\21 – Bimbo Jingle.wav

Peak level 77.8 %
Track quality 100.0 %
Test CRC A2F0AF18
Copy CRC A2F0AF18
Track not present in AccurateRip database
Copy OK

None of the tracks are present in the AccurateRip database

No errors occurred

End of status report

REM GENRE “Punk Rock”
REM DATE 1982
REM DISCID 36104A15
REM COMMENT “ExactAudioCopy v0.99pb4”
PERFORMER “The Damned”
TITLE “Strawberries”
FILE “01 – Ignite.wav” WAVE
TRACK 01 AUDIO
TITLE “Ignite”
PERFORMER “The Damned”
INDEX 01 00:00:00
FILE “02 – Generals.wav” WAVE
TRACK 02 AUDIO
TITLE “Generals”
PERFORMER “The Damned”
INDEX 01 00:00:00
FILE “03 – Stranger on the Town.wav” WAVE
TRACK 03 AUDIO
TITLE “Stranger on the Town”
PERFORMER “The Damned”
INDEX 01 00:00:00
FILE “04 – Dozen Girls.wav” WAVE
TRACK 04 AUDIO
TITLE “Dozen Girls”
PERFORMER “The Damned”
INDEX 01 00:00:00
FILE “05 – The Dog.wav” WAVE
TRACK 05 AUDIO
TITLE “The Dog”
PERFORMER “The Damned”
INDEX 01 00:00:00
FILE “06 – Gun Fury (of Riot Forces).wav” WAVE
TRACK 06 AUDIO
TITLE “Gun Fury (of Riot Forces)”
PERFORMER “The Damned”
INDEX 01 00:00:00
FILE “07 – Pleasure and the Pain.wav” WAVE
TRACK 07 AUDIO
TITLE “Pleasure and the Pain”
PERFORMER “The Damned”
INDEX 01 00:00:00
FILE “08 – The Missing Link.wav” WAVE
TRACK 08 AUDIO
TITLE “The Missing Link”
PERFORMER “The Damned”
INDEX 01 00:00:00
FILE “09 – Life Goes On.wav” WAVE
TRACK 09 AUDIO
TITLE “Life Goes On”
PERFORMER “The Damned”
INDEX 01 00:00:00
FILE “10 – Bad Time For Bonzo.wav” WAVE
TRACK 10 AUDIO
TITLE “Bad Time For Bonzo”
PERFORMER “The Damned”
INDEX 01 00:00:00
FILE “11 – Under the Floor Again.wav” WAVE
TRACK 11 AUDIO
TITLE “Under the Floor Again”
PERFORMER “The Damned”
INDEX 01 00:00:00
FILE “12 – Don’t Bother Me.wav” WAVE
TRACK 12 AUDIO
TITLE “Don’t Bother Me”
PERFORMER “The Damned”
INDEX 01 00:00:00
FILE “13 – Lovely Money.wav” WAVE
TRACK 13 AUDIO
TITLE “Lovely Money”
PERFORMER “The Damned”
INDEX 01 00:00:00
FILE “14 – I Think I’m Wonderful.wav” WAVE
TRACK 14 AUDIO
TITLE “I Think I’m Wonderful”
PERFORMER “The Damned”
INDEX 01 00:00:00
FILE “15 – Take That.wav” WAVE
TRACK 15 AUDIO
TITLE “Take That”
PERFORMER “The Damned”
INDEX 01 00:00:00
FILE “16 – Mine’s A Large One Landlord.wav” WAVE
TRACK 16 AUDIO
TITLE “Mine’s A Large One Landlord”
PERFORMER “The Damned”
INDEX 01 00:00:00
FILE “17 – Torture Me.wav” WAVE
TRACK 17 AUDIO
TITLE “Torture Me”
PERFORMER “The Damned”
INDEX 01 00:00:00
FILE “18 – Disguise.wav” WAVE
TRACK 18 AUDIO
TITLE “Disguise”
PERFORMER “The Damned”
INDEX 01 00:00:00
FILE “19 – Rat Vs. The Omni.wav” WAVE
TRACK 19 AUDIO
TITLE “Rat Vs. The Omni”
PERFORMER “The Damned”
INDEX 01 00:00:00
FILE “20 – Citadel Zombies.wav” WAVE
TRACK 20 AUDIO
TITLE “Citadel Zombies”
PERFORMER “The Damned”
INDEX 01 00:00:00
FILE “21 – Bimbo Jingle.wav” WAVE
TRACK 21 AUDIO
TITLE “Bimbo Jingle”
PERFORMER “The Damned”
INDEX 01 00:00:00


Leave a Reply

Your email address will not be published. Required fields are marked *

Enter the text from the image below
 

This site uses Akismet to reduce spam. Learn how your comment data is processed.