The Damned – Sessions Of The Damned




No Cover available

Artist: The Damned
Year: 1993
Genre: Punk
Notes: Discogs
Add. Notes:
Watch Songs on: YouTube
Cover incl.: Yes
Encoder: FLAC
Bitrate: ~1000 kBit/s (44.1 kHz/16 Bit/s)
Log & Cue incl.: Yes/Yes
Size: 503,3 MB
Password: “slam” (without ” “)


All Downloads/Hosters are compatible

Download 1
KatFile.com
Turbobit.net
Rapidgator.net
FileFactory.com
Download 2
KatFile.com
Turbobit.net
Rapidgator.net
FileFactory.com

Tracklist:

1 Stab Your Back 1:01
2 Neat Neat Neat 2:40
3 New Rose 2:41
4 So Messed Up 2:29
5 I Fall 2:11
6 Sick Of Being Sick 2:30
7 Stretcher Case Baby 1:49
8 Fan Club 3:03
9 Feel The Pain 3:34
10 Melody Lee 2:29
11 I'm A Burglar 3:29
12 Love Song 2:20
13 Looking At You 3:54
14 I Just Can't Be Happy Today 4:41
15 Smash It Up 4:02
16 I'm Bored 2:23
17 Curtain Call (Part 1) 10:26
18 Therapy 5:01
19 Is It A Dream? 3:26
20 Nasty 3:00
21 We Love You 2:34
22 Thanks For The Night 4:04

EAC-Log, CUE-Sheed & NFO:

Click to open spoiler
X Lossless Decoder version 20080926 (93.3)

XLD extraction logfile from 2008-10-18 16:33:34 -0700

The Damned / The Damned – Sessions Of The Damned

Used drive : MATSHITA DVD-R UJ-846 (revision FAAG)

Use cdparanoia mode : YES (CDParanoia III 10.2 engine)
Disable audio cache : OK for the drive with cache less than 2750KB
Make use of C2 pointers : NO
Read offset correction : 102
Max retry count : 100

TOC of the extracted CD
Track | Start | Length | Start sector | End sector
———————————————————
1 | 00:00:00 | 01:01:27 | 0 | 4601
2 | 01:01:27 | 02:40:25 | 4602 | 16626
3 | 03:41:52 | 02:41:50 | 16627 | 28751
4 | 06:23:27 | 02:29:08 | 28752 | 39934
5 | 08:52:35 | 02:11:42 | 39935 | 49801
6 | 11:04:02 | 02:30:30 | 49802 | 61081
7 | 13:34:32 | 01:49:10 | 61082 | 69266
8 | 15:23:42 | 03:03:68 | 69267 | 83059
9 | 18:27:35 | 03:34:25 | 83060 | 99134
10 | 22:01:60 | 02:29:55 | 99135 | 110364
11 | 24:31:40 | 03:29:37 | 110365 | 126076
12 | 28:01:02 | 02:20:28 | 126077 | 136604
13 | 30:21:30 | 03:54:42 | 136605 | 154196
14 | 34:15:72 | 04:41:43 | 154197 | 175314
15 | 38:57:40 | 04:02:17 | 175315 | 193481
16 | 42:59:57 | 02:23:15 | 193482 | 204221
17 | 45:22:72 | 10:26:00 | 204222 | 251171
18 | 55:48:72 | 05:01:60 | 251172 | 273806
19 | 60:50:57 | 03:26:08 | 273807 | 289264
20 | 64:16:65 | 03:00:62 | 289265 | 302826
21 | 67:17:52 | 02:34:08 | 302827 | 314384
22 | 69:51:60 | 04:04:42 | 314385 | 332726

Track 01
Filename : The Damned – The Damned – Sessions Of The Damned/01 Stab Your Back.flac

CRC32 hash : 75518F89
CRC32 hash (skip zero) : 44C79E9B
AccurateRip signature : 49DB2B74
->Track not present in AccurateRip database.
Statistics
Read error : 0
Skipped (treated as error) : 0
Edge jitter error (maybe fixed) : 0
Atom jitter error (maybe fixed) : 0
Drift error (maybe fixed) : 0
Dropped bytes error (maybe fixed) : 0
Duplicated bytes error (maybe fixed) : 0

Track 02
Filename : The Damned – The Damned – Sessions Of The Damned/02 Neat Neat Neat.flac

CRC32 hash : 21A808B5
CRC32 hash (skip zero) : AB98F834
AccurateRip signature : 1C1BD55E
->Track not present in AccurateRip database.
Statistics
Read error : 0
Skipped (treated as error) : 0
Edge jitter error (maybe fixed) : 0
Atom jitter error (maybe fixed) : 0
Drift error (maybe fixed) : 0
Dropped bytes error (maybe fixed) : 0
Duplicated bytes error (maybe fixed) : 0

Track 03
Filename : The Damned – The Damned – Sessions Of The Damned/03 New Rose.flac

CRC32 hash : FDED7D08
CRC32 hash (skip zero) : CB4726A2
AccurateRip signature : DB201F36
->Track not present in AccurateRip database.
Statistics
Read error : 0
Skipped (treated as error) : 0
Edge jitter error (maybe fixed) : 0
Atom jitter error (maybe fixed) : 0
Drift error (maybe fixed) : 0
Dropped bytes error (maybe fixed) : 0
Duplicated bytes error (maybe fixed) : 0

Track 04
Filename : The Damned – The Damned – Sessions Of The Damned/04 So Messed Up.flac

CRC32 hash : D021EDCC
CRC32 hash (skip zero) : 8E81A282
AccurateRip signature : 31E1F68B
->Track not present in AccurateRip database.
Statistics
Read error : 0
Skipped (treated as error) : 0
Edge jitter error (maybe fixed) : 0
Atom jitter error (maybe fixed) : 0
Drift error (maybe fixed) : 0
Dropped bytes error (maybe fixed) : 0
Duplicated bytes error (maybe fixed) : 0

Track 05
Filename : The Damned – The Damned – Sessions Of The Damned/05 I Fall.flac

CRC32 hash : B4A34BDF
CRC32 hash (skip zero) : ADDD1B9E
AccurateRip signature : 12C2365A
->Track not present in AccurateRip database.
Statistics
Read error : 0
Skipped (treated as error) : 0
Edge jitter error (maybe fixed) : 0
Atom jitter error (maybe fixed) : 0
Drift error (maybe fixed) : 0
Dropped bytes error (maybe fixed) : 0
Duplicated bytes error (maybe fixed) : 0

Track 06
Filename : The Damned – The Damned – Sessions Of The Damned/06 Sick Of Being Sick.flac

CRC32 hash : 76EFAAB4
CRC32 hash (skip zero) : 65133492
AccurateRip signature : 0AF54459
->Track not present in AccurateRip database.
Statistics
Read error : 0
Skipped (treated as error) : 0
Edge jitter error (maybe fixed) : 0
Atom jitter error (maybe fixed) : 0
Drift error (maybe fixed) : 0
Dropped bytes error (maybe fixed) : 0
Duplicated bytes error (maybe fixed) : 0

Track 07
Filename : The Damned – The Damned – Sessions Of The Damned/07 Stretcher Case.flac

CRC32 hash : 97F89F27
CRC32 hash (skip zero) : 02296449
AccurateRip signature : 61CAA5E4
->Track not present in AccurateRip database.
Statistics
Read error : 0
Skipped (treated as error) : 0
Edge jitter error (maybe fixed) : 0
Atom jitter error (maybe fixed) : 0
Drift error (maybe fixed) : 0
Dropped bytes error (maybe fixed) : 0
Duplicated bytes error (maybe fixed) : 0

Track 08
Filename : The Damned – The Damned – Sessions Of The Damned/08 Fan Club.flac

CRC32 hash : 64F73207
CRC32 hash (skip zero) : 61F000CE
AccurateRip signature : 0D0FC554
->Track not present in AccurateRip database.
Statistics
Read error : 0
Skipped (treated as error) : 0
Edge jitter error (maybe fixed) : 0
Atom jitter error (maybe fixed) : 0
Drift error (maybe fixed) : 0
Dropped bytes error (maybe fixed) : 0
Duplicated bytes error (maybe fixed) : 0

Track 09
Filename : The Damned – The Damned – Sessions Of The Damned/09 Feel The Pain.flac

CRC32 hash : BC0F6581
CRC32 hash (skip zero) : C156CC90
AccurateRip signature : 3C405247
->Track not present in AccurateRip database.
Statistics
Read error : 0
Skipped (treated as error) : 0
Edge jitter error (maybe fixed) : 0
Atom jitter error (maybe fixed) : 0
Drift error (maybe fixed) : 0
Dropped bytes error (maybe fixed) : 0
Duplicated bytes error (maybe fixed) : 0

Track 10
Filename : The Damned – The Damned – Sessions Of The Damned/10 Melody Lee.flac

CRC32 hash : 34FD322D
CRC32 hash (skip zero) : A0D0F7E1
AccurateRip signature : 6D2F763C
->Track not present in AccurateRip database.
Statistics
Read error : 0
Skipped (treated as error) : 0
Edge jitter error (maybe fixed) : 0
Atom jitter error (maybe fixed) : 0
Drift error (maybe fixed) : 0
Dropped bytes error (maybe fixed) : 0
Duplicated bytes error (maybe fixed) : 0

Track 11
Filename : The Damned – The Damned – Sessions Of The Damned/11 I’m A Burglar.flac

CRC32 hash : 6FA36AA2
CRC32 hash (skip zero) : 49D0B748
AccurateRip signature : E4071AB1
->Track not present in AccurateRip database.
Statistics
Read error : 0
Skipped (treated as error) : 0
Edge jitter error (maybe fixed) : 0
Atom jitter error (maybe fixed) : 0
Drift error (maybe fixed) : 0
Dropped bytes error (maybe fixed) : 0
Duplicated bytes error (maybe fixed) : 0

Track 12
Filename : The Damned – The Damned – Sessions Of The Damned/12 Love Song.flac

CRC32 hash : F4C3ABDC
CRC32 hash (skip zero) : 3A45F2A3
AccurateRip signature : 58CE0540
->Track not present in AccurateRip database.
Statistics
Read error : 0
Skipped (treated as error) : 0
Edge jitter error (maybe fixed) : 0
Atom jitter error (maybe fixed) : 0
Drift error (maybe fixed) : 0
Dropped bytes error (maybe fixed) : 0
Duplicated bytes error (maybe fixed) : 0

Track 13
Filename : The Damned – The Damned – Sessions Of The Damned/13 Looking At You.flac

CRC32 hash : 44932490
CRC32 hash (skip zero) : 7550F5E7
AccurateRip signature : 601DDBFB
->Track not present in AccurateRip database.
Statistics
Read error : 0
Skipped (treated as error) : 0
Edge jitter error (maybe fixed) : 0
Atom jitter error (maybe fixed) : 0
Drift error (maybe fixed) : 0
Dropped bytes error (maybe fixed) : 0
Duplicated bytes error (maybe fixed) : 0

Track 14
Filename : The Damned – The Damned – Sessions Of The Damned/14 I Just Can’t Be Happy Today.flac

CRC32 hash : 0A7D8F1F
CRC32 hash (skip zero) : CF72FA23
AccurateRip signature : 6D015457
->Track not present in AccurateRip database.
Statistics
Read error : 0
Skipped (treated as error) : 0
Edge jitter error (maybe fixed) : 0
Atom jitter error (maybe fixed) : 0
Drift error (maybe fixed) : 0
Dropped bytes error (maybe fixed) : 0
Duplicated bytes error (maybe fixed) : 0

Track 15
Filename : The Damned – The Damned – Sessions Of The Damned/15 Smash It Up.flac

CRC32 hash : 4D2DC371
CRC32 hash (skip zero) : E024C7C4
AccurateRip signature : B35CB87B
->Track not present in AccurateRip database.
Statistics
Read error : 0
Skipped (treated as error) : 0
Edge jitter error (maybe fixed) : 0
Atom jitter error (maybe fixed) : 0
Drift error (maybe fixed) : 0
Dropped bytes error (maybe fixed) : 0
Duplicated bytes error (maybe fixed) : 0

Track 16
Filename : The Damned – The Damned – Sessions Of The Damned/16 I’m Bored.flac

CRC32 hash : 2C4F39E4
CRC32 hash (skip zero) : 97FB9D1B
AccurateRip signature : C45D6B1A
->Track not present in AccurateRip database.
Statistics
Read error : 0
Skipped (treated as error) : 0
Edge jitter error (maybe fixed) : 0
Atom jitter error (maybe fixed) : 0
Drift error (maybe fixed) : 0
Dropped bytes error (maybe fixed) : 0
Duplicated bytes error (maybe fixed) : 0

Track 17
Filename : The Damned – The Damned – Sessions Of The Damned/17 Curtain Call Part 1.flac

CRC32 hash : DF8F7BA2
CRC32 hash (skip zero) : 7038EC25
AccurateRip signature : CB4571AE
->Track not present in AccurateRip database.
Statistics
Read error : 0
Skipped (treated as error) : 0
Edge jitter error (maybe fixed) : 0
Atom jitter error (maybe fixed) : 0
Drift error (maybe fixed) : 0
Dropped bytes error (maybe fixed) : 0
Duplicated bytes error (maybe fixed) : 0

Track 18
Filename : The Damned – The Damned – Sessions Of The Damned/18 Therapy.flac

CRC32 hash : CE6C82EE
CRC32 hash (skip zero) : 3AF3E241
AccurateRip signature : 4E8E302A
->Track not present in AccurateRip database.
Statistics
Read error : 0
Skipped (treated as error) : 0
Edge jitter error (maybe fixed) : 0
Atom jitter error (maybe fixed) : 0
Drift error (maybe fixed) : 0
Dropped bytes error (maybe fixed) : 0
Duplicated bytes error (maybe fixed) : 0

Track 19
Filename : The Damned – The Damned – Sessions Of The Damned/19 Is It A Dream?.flac

CRC32 hash : 675846DE
CRC32 hash (skip zero) : 7BF275BF
AccurateRip signature : C30CE994
->Track not present in AccurateRip database.
Statistics
Read error : 0
Skipped (treated as error) : 0
Edge jitter error (maybe fixed) : 0
Atom jitter error (maybe fixed) : 0
Drift error (maybe fixed) : 0
Dropped bytes error (maybe fixed) : 0
Duplicated bytes error (maybe fixed) : 0

Track 20
Filename : The Damned – The Damned – Sessions Of The Damned/20 Nasty.flac

CRC32 hash : 602D41C2
CRC32 hash (skip zero) : CF887BF5
AccurateRip signature : F4A7FA42
->Track not present in AccurateRip database.
Statistics
Read error : 0
Skipped (treated as error) : 0
Edge jitter error (maybe fixed) : 0
Atom jitter error (maybe fixed) : 0
Drift error (maybe fixed) : 0
Dropped bytes error (maybe fixed) : 0
Duplicated bytes error (maybe fixed) : 0

Track 21
Filename : The Damned – The Damned – Sessions Of The Damned/21 We Love You.flac

CRC32 hash : FFF8B0DA
CRC32 hash (skip zero) : DA5250B0
AccurateRip signature : 98F1B07F
->Track not present in AccurateRip database.
Statistics
Read error : 0
Skipped (treated as error) : 0
Edge jitter error (maybe fixed) : 0
Atom jitter error (maybe fixed) : 0
Drift error (maybe fixed) : 0
Dropped bytes error (maybe fixed) : 0
Duplicated bytes error (maybe fixed) : 0

Track 22
Filename : The Damned – The Damned – Sessions Of The Damned/22 Thanks For The Night.flac

CRC32 hash : D4C8986A
CRC32 hash (skip zero) : C1A3289B
AccurateRip signature : 53D6ED97
->Track not present in AccurateRip database.
Statistics
Read error : 0
Skipped (treated as error) : 0
Edge jitter error (maybe fixed) : 0
Atom jitter error (maybe fixed) : 0
Drift error (maybe fixed) : 0
Dropped bytes error (maybe fixed) : 0
Duplicated bytes error (maybe fixed) : 0

No errors occurred

End of status report

TITLE “The Damned – Sessions Of The Damned”
PERFORMER “The Damned”
REM GENRE “Rock”
REM DATE 2003
FILE “%A – The Damned – Sessions Of The Damned/01 Stab Your Back.wav” WAVE
TRACK 01 AUDIO
TITLE “Stab Your Back”
INDEX 01 00:00:00
TRACK 02 AUDIO
TITLE “Neat Neat Neat”
INDEX 00 00:59:02
FILE “%A – The Damned – Sessions Of The Damned/02 Neat Neat Neat.wav” WAVE
INDEX 01 00:00:00
TRACK 03 AUDIO
TITLE “New Rose”
INDEX 00 02:38:23
FILE “%A – The Damned – Sessions Of The Damned/03 New Rose.wav” WAVE
INDEX 01 00:00:00
TRACK 04 AUDIO
TITLE “So Messed Up”
INDEX 00 02:39:35
FILE “%A – The Damned – Sessions Of The Damned/04 So Messed Up.wav” WAVE
INDEX 01 00:00:00
TRACK 05 AUDIO
TITLE “I Fall”
INDEX 00 02:26:53
FILE “%A – The Damned – Sessions Of The Damned/05 I Fall.wav” WAVE
INDEX 01 00:00:00
TRACK 06 AUDIO
TITLE “Sick Of Being Sick”
INDEX 00 02:09:42
FILE “%A – The Damned – Sessions Of The Damned/06 Sick Of Being Sick.wav” WAVE
INDEX 01 00:00:00
TRACK 07 AUDIO
TITLE “Stretcher Case”
INDEX 00 02:28:03
FILE “%A – The Damned – Sessions Of The Damned/07 Stretcher Case.wav” WAVE
INDEX 01 00:00:00
TRACK 08 AUDIO
TITLE “Fan Club”
INDEX 00 01:47:20
FILE “%A – The Damned – Sessions Of The Damned/08 Fan Club.wav” WAVE
INDEX 01 00:00:00
TRACK 09 AUDIO
TITLE “Feel The Pain”
INDEX 00 03:01:70
FILE “%A – The Damned – Sessions Of The Damned/09 Feel The Pain.wav” WAVE
INDEX 01 00:00:00
TRACK 10 AUDIO
TITLE “Melody Lee”
INDEX 00 03:32:22
FILE “%A – The Damned – Sessions Of The Damned/10 Melody Lee.wav” WAVE
INDEX 01 00:00:00
TRACK 11 AUDIO
TITLE “I’m A Burglar”
INDEX 00 02:27:22
FILE “%A – The Damned – Sessions Of The Damned/11 I’m A Burglar.wav” WAVE
INDEX 01 00:00:00
TRACK 12 AUDIO
TITLE “Love Song”
INDEX 00 03:26:60
FILE “%A – The Damned – Sessions Of The Damned/12 Love Song.wav” WAVE
INDEX 01 00:00:00
TRACK 13 AUDIO
TITLE “Looking At You”
INDEX 00 02:19:03
FILE “%A – The Damned – Sessions Of The Damned/13 Looking At You.wav” WAVE
INDEX 01 00:00:00
FILE “%A – The Damned – Sessions Of The Damned/14 I Just Can’t Be Happy Today.wav” WAVE
TRACK 14 AUDIO
TITLE “I Just Can’t Be Happy Today”
INDEX 01 00:00:00
TRACK 15 AUDIO
TITLE “Smash It Up”
INDEX 00 04:39:28
FILE “%A – The Damned – Sessions Of The Damned/15 Smash It Up.wav” WAVE
INDEX 01 00:00:00
TRACK 16 AUDIO
TITLE “I’m Bored”
INDEX 00 03:59:65
FILE “%A – The Damned – Sessions Of The Damned/16 I’m Bored.wav” WAVE
INDEX 01 00:00:00
TRACK 17 AUDIO
TITLE “Curtain Call Part 1”
INDEX 00 02:20:68
FILE “%A – The Damned – Sessions Of The Damned/17 Curtain Call Part 1.wav” WAVE
INDEX 01 00:00:00
TRACK 18 AUDIO
TITLE “Therapy”
INDEX 00 10:23:13
FILE “%A – The Damned – Sessions Of The Damned/18 Therapy.wav” WAVE
INDEX 01 00:00:00
TRACK 19 AUDIO
TITLE “Is It A Dream?”
INDEX 00 04:58:53
FILE “%A – The Damned – Sessions Of The Damned/19 Is It A Dream?.wav” WAVE
INDEX 01 00:00:00
TRACK 20 AUDIO
TITLE “Nasty”
INDEX 00 03:23:58
FILE “%A – The Damned – Sessions Of The Damned/20 Nasty.wav” WAVE
INDEX 01 00:00:00
TRACK 21 AUDIO
TITLE “We Love You”
INDEX 00 02:58:50
FILE “%A – The Damned – Sessions Of The Damned/21 We Love You.wav” WAVE
INDEX 01 00:00:00
TRACK 22 AUDIO
TITLE “Thanks For The Night”
INDEX 00 02:31:55
FILE “%A – The Damned – Sessions Of The Damned/22 Thanks For The Night.wav” WAVE
INDEX 01 00:00:00


0

Publication author

offline 7 days

Chaos

3
Comments: 4Publics: 3565Registration: 02-02-2019
Spread the Download

Leave a Reply

Your email address will not be published. Required fields are marked *

Enter the text from the image below
 

This site uses Akismet to reduce spam. Learn how your comment data is processed.