The Damned – Phantasmagoria: Expanded Edition (Remastered)




No Cover available

Artist: The Damned
Year: 1985/2009
Genre: Rock
Notes: Discogs
Add. Notes: Remastered
Watch Songs on: YouTube
Cover incl.: Yes
Encoder: FLAC
Bitrate: ~800 kBit/s (44.1 kHz/16 Bit/s)
Log & Cue incl.: Yes/Yes
Size: 758,9 MB
Password: “slam” (without ” “)


All Downloads/Hosters are compatible

Download 1
KatFile.com
Turbobit.net
Rapidgator.net
FileFactory.com
Download 2
KatFile.com
Turbobit.net
Rapidgator.net
FileFactory.com

Tracklist:

1-1 Street Of Dreams 5:39
1-2 Shadow Of Love 3:52
1-3 There'll Come A Day 4:15
1-4 Sanctum Sanctorum 6:28
1-5 Is It A Dream 3:28
1-6 Grimly Fiendish 3:50
1-7 Edward The Bear 3:37
1-8 The Eighth Day 3:47
1-9 Trojans 4:53
Bonus Tracks
1-10 Grimly Fiendish (Bad Trip) 5:12
1-11 The Shadow Of Love (Ten Inches Of Hell Mix) 6:46
1-12 Is It A Dream (Wild West Express Mix Live) 6:45

2-1 Grimly Fiendish (Spic N Span Mix) 5:23
2-2 Edward The Bear 3:56
2-3 The Shadow Of Love (Pressure Mix) 5:27
2-4 Nightshift 2:28
2-5 Let There Be Rats 2:12
2-6 Wiped Out 1:38
2-7 Would You 2:49
2-8 Is It A Dream (Wild West End Mix) 8:13
2-9 Street Of Dreams (Live) 5:05
2-10 Curtain Call (Live) 4:30
2-11 Pretty Vacant (Live) 2:05
2-12 Wild Thing (Live) 2:18
2-13 Shadow Of Love (Radio One Session 20/5/85) 4:09
2-14 Is It A Dream (Radio One Session 20/5/85) 3:40
2-15 Street Of Dreams (Radio One Session 20/5/85) 4:43

EAC-Log, CUE-Sheed & NFO:

Click to open spoiler
Exact Audio Copy V0.99 prebeta 4 from 23. January 2008

EAC extraction logfile from 9. August 2009, 3:50

The Damned / Phantasmagoria (Expanded Edition) Disc 1

Used drive : LITE-ON DVDRW SHW-160P6S Adapter: 0 ID: 0

Read mode : Secure
Utilize accurate stream : Yes
Defeat audio cache : Yes
Make use of C2 pointers : No

Read offset correction : 6
Overread into Lead-In and Lead-Out : No
Fill up missing offset samples with silence : Yes
Delete leading and trailing silent blocks : No
Null samples used in CRC calculations : Yes
Used interface : Native Win32 interface for Win NT & 2000
Gap handling : Appended to previous track

Used output format : User Defined Encoder
Selected bitrate : 192 kBit/s
Quality : High
Add ID3 tag : No
Command line compressor : C:\Program Files\FLAC\flac.exe
Additional command line options : -V -8 -T “artist=%a” -T “title=%t” -T “album=%g” -T “date=%y” -T “tracknumber=%n” -T “genre=%m” %s

TOC of the extracted CD

Track | Start | Length | Start sector | End sector
———————————————————
1 | 0:00.00 | 5:38.43 | 0 | 25392
2 | 5:38.43 | 3:52.09 | 25393 | 42801
3 | 9:30.52 | 4:14.73 | 42802 | 61924
4 | 13:45.50 | 6:27.70 | 61925 | 91019
5 | 20:13.45 | 3:27.41 | 91020 | 106585
6 | 23:41.11 | 3:49.44 | 106586 | 123804
7 | 27:30.55 | 3:37.25 | 123805 | 140104
8 | 31:08.05 | 3:46.60 | 140105 | 157114
9 | 34:54.65 | 4:53.28 | 157115 | 179117
10 | 39:48.18 | 5:11.72 | 179118 | 202514
11 | 45:00.15 | 6:45.51 | 202515 | 232940
12 | 51:45.66 | 6:44.40 | 232941 | 263280

Track 1

Filename C:\Documents and Settings\evan purchell\Desktop\2009 – Phantasmagoria\Disc One\01 – Street Of Dreams.wav

Pre-gap length 0:00:02.00

Peak level 97.7 %
Track quality 100.0 %
Test CRC E8254789
Copy CRC E8254789
Accurately ripped (confidence 1) [99EBA40F]
Copy OK

Track 2

Filename C:\Documents and Settings\evan purchell\Desktop\2009 – Phantasmagoria\Disc One\02 – Shadow Of Love.wav

Pre-gap length 0:00:00.66

Peak level 97.7 %
Track quality 99.9 %
Test CRC BB237D0F
Copy CRC BB237D0F
Accurately ripped (confidence 1) [B0A7AB0E]
Copy OK

Track 3

Filename C:\Documents and Settings\evan purchell\Desktop\2009 – Phantasmagoria\Disc One\03 – There’ll Come A Day.wav

Peak level 93.2 %
Track quality 100.0 %
Test CRC E414F659
Copy CRC E414F659
Accurately ripped (confidence 1) [51CA87A8]
Copy OK

Track 4

Filename C:\Documents and Settings\evan purchell\Desktop\2009 – Phantasmagoria\Disc One\04 – Sanctum Sanctorum.wav

Pre-gap length 0:00:01.09

Peak level 94.8 %
Track quality 100.0 %
Test CRC 8382CD49
Copy CRC 8382CD49
Accurately ripped (confidence 1) [25D7BEA4]
Copy OK

Track 5

Filename C:\Documents and Settings\evan purchell\Desktop\2009 – Phantasmagoria\Disc One\05 – Is It A Dream.wav

Pre-gap length 0:00:03.56

Peak level 94.0 %
Track quality 99.9 %
Test CRC DF7994F0
Copy CRC DF7994F0
Accurately ripped (confidence 1) [CCB0D729]
Copy OK

Track 6

Filename C:\Documents and Settings\evan purchell\Desktop\2009 – Phantasmagoria\Disc One\06 – Grimly Fiendish.wav

Peak level 97.7 %
Track quality 100.0 %
Test CRC CA7E0228
Copy CRC CA7E0228
Accurately ripped (confidence 1) [C5DE2206]
Copy OK

Track 7

Filename C:\Documents and Settings\evan purchell\Desktop\2009 – Phantasmagoria\Disc One\07 – Edward The Bear.wav

Pre-gap length 0:00:00.53

Peak level 84.6 %
Track quality 100.0 %
Test CRC 0059C501
Copy CRC 0059C501
Accurately ripped (confidence 1) [FC09A9B8]
Copy OK

Track 8

Filename C:\Documents and Settings\evan purchell\Desktop\2009 – Phantasmagoria\Disc One\08 – The Eigth Day.wav

Pre-gap length 0:00:01.00

Peak level 88.5 %
Track quality 99.9 %
Test CRC 0393F649
Copy CRC 0393F649
Accurately ripped (confidence 1) [1FD581D1]
Copy OK

Track 9

Filename C:\Documents and Settings\evan purchell\Desktop\2009 – Phantasmagoria\Disc One\09 – Trojans.wav

Pre-gap length 0:00:00.60

Peak level 97.7 %
Track quality 100.0 %
Test CRC 7B339D2A
Copy CRC 7B339D2A
Accurately ripped (confidence 1) [C7E25822]
Copy OK

Track 10

Filename C:\Documents and Settings\evan purchell\Desktop\2009 – Phantasmagoria\Disc One\10 – Grimly Fiendish (Bad Trip Mix)[bonus track].wav

Pre-gap length 0:00:02.37

Peak level 97.7 %
Track quality 100.0 %
Test CRC E903265F
Copy CRC E903265F
Accurately ripped (confidence 1) [8937A310]
Copy OK

Track 11

Filename C:\Documents and Settings\evan purchell\Desktop\2009 – Phantasmagoria\Disc One\11 – Shadow Of Love (Ten Inches Of Hell Mix)[bonus track].wav

Pre-gap length 0:00:02.13

Peak level 97.7 %
Track quality 100.0 %
Test CRC 294B21B5
Copy CRC 294B21B5
Accurately ripped (confidence 1) [A3DA33AC]
Copy OK

Track 12

Filename C:\Documents and Settings\evan purchell\Desktop\2009 – Phantasmagoria\Disc One\12 – Is It A Dream (Wild West Express Mix Live)[bonus track].wav

Pre-gap length 0:00:03.22

Peak level 83.0 %
Track quality 100.0 %
Test CRC 77B64CB6
Copy CRC 77B64CB6
Accurately ripped (confidence 1) [40A6D43E]
Copy OK

All tracks accurately ripped

No errors occurred

End of status report

Exact Audio Copy V0.99 prebeta 4 from 23. January 2008

EAC extraction logfile from 9. August 2009, 11:51

The Damned / Phantasmagoria (Expanded Edition) Disc 2

Used drive : LITE-ON DVDRW SHW-160P6S Adapter: 0 ID: 0

Read mode : Secure
Utilize accurate stream : Yes
Defeat audio cache : Yes
Make use of C2 pointers : No

Read offset correction : 6
Overread into Lead-In and Lead-Out : No
Fill up missing offset samples with silence : Yes
Delete leading and trailing silent blocks : No
Null samples used in CRC calculations : Yes
Used interface : Native Win32 interface for Win NT & 2000
Gap handling : Appended to previous track

Used output format : User Defined Encoder
Selected bitrate : 192 kBit/s
Quality : High
Add ID3 tag : No
Command line compressor : C:\Program Files\FLAC\flac.exe
Additional command line options : -V -8 -T “artist=%a” -T “title=%t” -T “album=%g” -T “date=%y” -T “tracknumber=%n” -T “genre=%m” %s

TOC of the extracted CD

Track | Start | Length | Start sector | End sector
———————————————————
1 | 0:00.00 | 5:23.27 | 0 | 24251
2 | 5:23.27 | 3:55.59 | 24252 | 41935
3 | 9:19.11 | 5:36.73 | 41936 | 67208
4 | 14:56.09 | 2:27.70 | 67209 | 78303
5 | 17:24.04 | 2:11.48 | 78304 | 88176
6 | 19:35.52 | 1:38.05 | 88177 | 95531
7 | 21:13.57 | 2:48.52 | 95532 | 108183
8 | 24:02.34 | 8:13.31 | 108184 | 145189
9 | 32:15.65 | 5:05.03 | 145190 | 168067
10 | 37:20.68 | 4:29.68 | 168068 | 188310
11 | 41:50.61 | 2:04.39 | 188311 | 197649
12 | 43:55.25 | 2:18.11 | 197650 | 208010
13 | 46:13.36 | 4:08.43 | 208011 | 226653
14 | 50:22.04 | 3:39.42 | 226654 | 243120
15 | 54:01.46 | 4:43.29 | 243121 | 264374

Track 1

Filename C:\Documents and Settings\evan purchell\Desktop\2009 – Phantasmagoria\Disc Two\01 – Grimly Fiendish (Spic N Span Mix).wav

Pre-gap length 0:00:02.00

Peak level 97.7 %
Track quality 100.0 %
Test CRC C75E9259
Copy CRC C75E9259
Accurately ripped (confidence 1) [9C0ED6AF]
Copy OK

Track 2

Filename C:\Documents and Settings\evan purchell\Desktop\2009 – Phantasmagoria\Disc Two\02 – Edward The Bear.wav

Pre-gap length 0:00:02.70

Peak level 97.7 %
Track quality 99.9 %
Test CRC C61C7893
Copy CRC C61C7893
Accurately ripped (confidence 1) [F2231BCB]
Copy OK

Track 3

Filename C:\Documents and Settings\evan purchell\Desktop\2009 – Phantasmagoria\Disc Two\03 – Shadow Of Love (Pressure Mix).wav

Pre-gap length 0:00:02.78

Peak level 97.7 %
Track quality 100.0 %
Test CRC 16917A6E
Copy CRC 16917A6E
Accurately ripped (confidence 1) [F866EAB1]
Copy OK

Track 4

Filename C:\Documents and Settings\evan purchell\Desktop\2009 – Phantasmagoria\Disc Two\04 – Nightshift.wav

Pre-gap length 0:00:03.17

Peak level 97.7 %
Track quality 100.0 %
Test CRC 26808898
Copy CRC 26808898
Accurately ripped (confidence 1) [7D02B307]
Copy OK

Track 5

Filename C:\Documents and Settings\evan purchell\Desktop\2009 – Phantasmagoria\Disc Two\05 – Let There Be Rats.wav

Pre-gap length 0:00:03.84

Peak level 97.7 %
Track quality 100.0 %
Test CRC 363CE851
Copy CRC 363CE851
Accurately ripped (confidence 1) [57419B75]
Copy OK

Track 6

Filename C:\Documents and Settings\evan purchell\Desktop\2009 – Phantasmagoria\Disc Two\06 – Wiped Out.wav

Pre-gap length 0:00:02.70

Peak level 97.7 %
Track quality 100.0 %
Test CRC E57E50B7
Copy CRC E57E50B7
Accurately ripped (confidence 1) [8FAD82E6]
Copy OK

Track 7

Filename C:\Documents and Settings\evan purchell\Desktop\2009 – Phantasmagoria\Disc Two\07 – Would You.wav

Pre-gap length 0:00:03.68

Peak level 97.7 %
Track quality 99.9 %
Test CRC 60DECCB4
Copy CRC 60DECCB4
Accurately ripped (confidence 1) [95E716FF]
Copy OK

Track 8

Filename C:\Documents and Settings\evan purchell\Desktop\2009 – Phantasmagoria\Disc Two\08 – Is It A Dream (Wild West End Mix).wav

Pre-gap length 0:00:02.80

Peak level 92.2 %
Track quality 100.0 %
Test CRC 3614A9BE
Copy CRC 3614A9BE
Accurately ripped (confidence 1) [7E9A9996]
Copy OK

Track 9

Filename C:\Documents and Settings\evan purchell\Desktop\2009 – Phantasmagoria\Disc Two\09 – Street Of Dreams (Live).wav

Pre-gap length 0:00:02.98

Peak level 97.7 %
Track quality 100.0 %
Test CRC DC860CC4
Copy CRC DC860CC4
Accurately ripped (confidence 1) [4BFAC927]
Copy OK

Track 10

Filename C:\Documents and Settings\evan purchell\Desktop\2009 – Phantasmagoria\Disc Two\10 – Curtain Call (Live).wav

Peak level 97.7 %
Track quality 100.0 %
Test CRC A2C3D92E
Copy CRC A2C3D92E
Accurately ripped (confidence 1) [63E92379]
Copy OK

Track 11

Filename C:\Documents and Settings\evan purchell\Desktop\2009 – Phantasmagoria\Disc Two\11 – Pretty Vacant (Live).wav

Pre-gap length 0:00:02.84

Peak level 97.7 %
Track quality 99.9 %
Test CRC 1F0C37A7
Copy CRC 1F0C37A7
Accurately ripped (confidence 1) [33E7DF5B]
Copy OK

Track 12

Filename C:\Documents and Settings\evan purchell\Desktop\2009 – Phantasmagoria\Disc Two\12 – Wild Thing (Live).wav

Pre-gap length 0:00:00.01

Peak level 97.7 %
Track quality 99.9 %
Test CRC BB351E09
Copy CRC BB351E09
Accurately ripped (confidence 1) [043B153C]
Copy OK

Track 13

Filename C:\Documents and Settings\evan purchell\Desktop\2009 – Phantasmagoria\Disc Two\13 – Shadow Of Love (Radio One Session 20-05-85).wav

Pre-gap length 0:00:03.98

Peak level 87.0 %
Track quality 100.0 %
Test CRC 343339AA
Copy CRC 343339AA
Accurately ripped (confidence 1) [F3ADB841]
Copy OK

Track 14

Filename C:\Documents and Settings\evan purchell\Desktop\2009 – Phantasmagoria\Disc Two\14 – Is It A Dream (Radio One Session 20-05-85).wav

Pre-gap length 0:00:03.01

Peak level 87.0 %
Track quality 100.0 %
Test CRC 042B281A
Copy CRC 042B281A
Accurately ripped (confidence 1) [9D312F2A]
Copy OK

Track 15

Filename C:\Documents and Settings\evan purchell\Desktop\2009 – Phantasmagoria\Disc Two\15 – Street Of Dreams (Radio One Session 20-05-85).wav

Pre-gap length 0:00:02.90

Peak level 87.0 %
Track quality 100.0 %
Test CRC 3C7CDE83
Copy CRC 3C7CDE83
Accurately ripped (confidence 1) [7E3A68D6]
Copy OK

All tracks accurately ripped

No errors occurred

End of status report

REM GENRE Rock
REM DATE 2009
REM DISCID 8E0DB60C
REM COMMENT “ExactAudioCopy v0.99pb4”
PERFORMER “The Damned”
TITLE “Phantasmagoria (Expanded Edition) Disc 1”
FILE “01 – Street Of Dreams.wav” WAVE
TRACK 01 AUDIO
TITLE “Street Of Dreams”
PERFORMER “The Damned”
INDEX 01 00:00:00
TRACK 02 AUDIO
TITLE “Shadow Of Love”
PERFORMER “The Damned”
INDEX 00 05:37:68
FILE “02 – Shadow Of Love.wav” WAVE
INDEX 01 00:00:00
FILE “03 – There’ll Come A Day.wav” WAVE
TRACK 03 AUDIO
TITLE “There’ll Come A Day”
PERFORMER “The Damned”
INDEX 01 00:00:00
TRACK 04 AUDIO
TITLE “Sanctum Sanctorum”
PERFORMER “The Damned”
INDEX 00 04:13:66
FILE “04 – Sanctum Sanctorum.wav” WAVE
INDEX 01 00:00:00
TRACK 05 AUDIO
TITLE “Is It A Dream”
PERFORMER “The Damned”
INDEX 00 06:24:28
FILE “05 – Is It A Dream.wav” WAVE
INDEX 01 00:00:00
FILE “06 – Grimly Fiendish.wav” WAVE
TRACK 06 AUDIO
TITLE “Grimly Fiendish”
PERFORMER “The Damned”
INDEX 01 00:00:00
TRACK 07 AUDIO
TITLE “Edward The Bear”
PERFORMER “The Damned”
INDEX 00 03:49:04
FILE “07 – Edward The Bear.wav” WAVE
INDEX 01 00:00:00
TRACK 08 AUDIO
TITLE “The Eigth Day”
PERFORMER “The Damned”
INDEX 00 03:36:25
FILE “08 – The Eigth Day.wav” WAVE
INDEX 01 00:00:00
TRACK 09 AUDIO
TITLE “Trojans”
PERFORMER “The Damned”
INDEX 00 03:46:15
FILE “09 – Trojans.wav” WAVE
INDEX 01 00:00:00
TRACK 10 AUDIO
TITLE “Grimly Fiendish (Bad Trip Mix)[bonus track]”
PERFORMER “The Damned”
INDEX 00 04:51:00
FILE “10 – Grimly Fiendish (Bad Trip Mix)[bonus track].wav” WAVE
INDEX 01 00:00:00
TRACK 11 AUDIO
TITLE “Shadow Of Love (Ten Inches Of Hell Mix)[bonus track]”
PERFORMER “The Damned”
INDEX 00 05:09:62
FILE “11 – Shadow Of Love (Ten Inches Of Hell Mix)[bonus track].wav” WAVE
INDEX 01 00:00:00
TRACK 12 AUDIO
TITLE “Is It A Dream (Wild West Express Mix Live)[bonus track]”
PERFORMER “The Damned”
INDEX 00 06:42:34
FILE “12 – Is It A Dream (Wild West Express Mix Live)[bonus track].wav” WAVE
INDEX 01 00:00:00

REM GENRE Rock
REM DATE 2009
REM DISCID CC0DC50F
REM COMMENT “ExactAudioCopy v0.99pb4”
PERFORMER “The Damned”
TITLE “Phantasmagoria (Expanded Edition) Disc 2”
FILE “01 – Grimly Fiendish (Spic N Span Mix).wav” WAVE
TRACK 01 AUDIO
TITLE “Grimly Fiendish (Spic N Span Mix)”
PERFORMER “The Damned”
INDEX 01 00:00:00
TRACK 02 AUDIO
TITLE “Edward The Bear”
PERFORMER “The Damned”
INDEX 00 05:20:49
FILE “02 – Edward The Bear.wav” WAVE
INDEX 01 00:00:00
TRACK 03 AUDIO
TITLE “Shadow Of Love (Pressure Mix)”
PERFORMER “The Damned”
INDEX 00 03:53:00
FILE “03 – Shadow Of Love (Pressure Mix).wav” WAVE
INDEX 01 00:00:00
TRACK 04 AUDIO
TITLE “Nightshift”
PERFORMER “The Damned”
INDEX 00 05:33:60
FILE “04 – Nightshift.wav” WAVE
INDEX 01 00:00:00
TRACK 05 AUDIO
TITLE “Let There Be Rats”
PERFORMER “The Damned”
INDEX 00 02:24:07
FILE “05 – Let There Be Rats.wav” WAVE
INDEX 01 00:00:00
TRACK 06 AUDIO
TITLE “Wiped Out”
PERFORMER “The Damned”
INDEX 00 02:08:70
FILE “06 – Wiped Out.wav” WAVE
INDEX 01 00:00:00
TRACK 07 AUDIO
TITLE “Would You”
PERFORMER “The Damned”
INDEX 00 01:34:29
FILE “07 – Would You.wav” WAVE
INDEX 01 00:00:00
TRACK 08 AUDIO
TITLE “Is It A Dream (Wild West End Mix)”
PERFORMER “The Damned”
INDEX 00 02:45:67
FILE “08 – Is It A Dream (Wild West End Mix).wav” WAVE
INDEX 01 00:00:00
TRACK 09 AUDIO
TITLE “Street Of Dreams (Live)”
PERFORMER “The Damned”
INDEX 00 08:10:32
FILE “09 – Street Of Dreams (Live).wav” WAVE
INDEX 01 00:00:00
FILE “10 – Curtain Call (Live).wav” WAVE
TRACK 10 AUDIO
TITLE “Curtain Call (Live)”
PERFORMER “The Damned”
INDEX 01 00:00:00
TRACK 11 AUDIO
TITLE “Pretty Vacant (Live)”
PERFORMER “The Damned”
INDEX 00 04:27:05
FILE “11 – Pretty Vacant (Live).wav” WAVE
INDEX 01 00:00:00
TRACK 12 AUDIO
TITLE “Wild Thing (Live)”
PERFORMER “The Damned”
INDEX 00 02:04:38
FILE “12 – Wild Thing (Live).wav” WAVE
INDEX 01 00:00:00
TRACK 13 AUDIO
TITLE “Shadow Of Love (Radio One Session 20-05-85)”
PERFORMER “The Damned”
INDEX 00 02:14:12
FILE “13 – Shadow Of Love (Radio One Session 20-05-85).wav” WAVE
INDEX 01 00:00:00
TRACK 14 AUDIO
TITLE “Is It A Dream (Radio One Session 20-05-85)”
PERFORMER “The Damned”
INDEX 00 04:05:42
FILE “14 – Is It A Dream (Radio One Session 20-05-85).wav” WAVE
INDEX 01 00:00:00
TRACK 15 AUDIO
TITLE “Street Of Dreams (Radio One Session 20-05-85)”
PERFORMER “The Damned”
INDEX 00 03:36:49
FILE “15 – Street Of Dreams (Radio One Session 20-05-85).wav” WAVE
INDEX 01 00:00:00


Leave a Reply

Your email address will not be published. Required fields are marked *

Enter the text from the image below
 

This site uses Akismet to reduce spam. Learn how your comment data is processed.