The Damned – Not Of This Earth




No Cover available

Release: The_Damned_-_1996_-_Not_Of_This_Earth_CLP_9782-2
Artist: The Damned
Year: 1996
Genre: Rock
Notes: Discogs
Add. Notes:
Watch Songs on: YouTube
Cover incl.: Yes
Encoder: FLAC
Bitrate: ~800 kBit/s (44.1 kHz/16 Bit/s)
Log & Cue incl.: Yes/Yes
Size: 261,7 MB
Password: “slam” (without ” “)


All Downloads/Hosters are compatible

Download 1
KatFile.com
Turbobit.net
Rapidgator.net
FileFactory.com
Download 2
KatFile.com
Turbobit.net
Rapidgator.net
FileFactory.com

Tracklist:

1 I Need A Life 3:20
2 Testify 2:56
3 Shut It 2:48
4 Tailspin 4:13
5 Not Of This Earth 2:55
6 Running Man 5:06
7 My Desire 2:48
8 Never Could Believe 4:57
9 Heaven ... Can Take Your Lies 3:49
10 Shadow To Fall 3:02
11 No More Tears 5:14
12 Prokofiev 3:24

EAC-Log, CUE-Sheed & NFO:

Click to open spoiler
Exact Audio Copy V0.99 prebeta 4 from 23. January 2008

EAC extraction logfile from 16. September 2008, 9:26

The Damned / Not Of This Earth

Used drive : HL-DT-STDVDRAM GH20NS10 Adapter: 3 ID: 0

Read mode : Secure
Utilize accurate stream : Yes
Defeat audio cache : Yes
Make use of C2 pointers : No

Read offset correction : 667
Overread into Lead-In and Lead-Out : No
Fill up missing offset samples with silence : Yes
Delete leading and trailing silent blocks : No
Null samples used in CRC calculations : Yes
Used interface : Native Win32 interface for Win NT & 2000
Gap handling : Appended to previous track

Used output format : User Defined Encoder
Selected bitrate : 768 kBit/s
Quality : High
Add ID3 tag : No
Command line compressor : C:\Program Files\FLAC\flac.exe
Additional command line options : -V -8 -T “artist=%a” -T “title=%t” -T “album=%g” -T “date=%y” -T “tracknumber=%n” %s

TOC of the extracted CD

Track | Start | Length | Start sector | End sector
———————————————————
1 | 0:00.32 | 3:20.00 | 32 | 15031
2 | 3:20.32 | 2:56.30 | 15032 | 28261
3 | 6:16.62 | 2:48.15 | 28262 | 40876
4 | 9:05.02 | 4:13.05 | 40877 | 59856
5 | 13:18.07 | 2:55.00 | 59857 | 72981
6 | 16:13.07 | 5:06.35 | 72982 | 95966
7 | 21:19.42 | 2:48.08 | 95967 | 108574
8 | 24:07.50 | 4:57.70 | 108575 | 130919
9 | 29:05.45 | 3:49.57 | 130920 | 148151
10 | 32:55.27 | 3:02.65 | 148152 | 161866
11 | 35:58.17 | 5:14.00 | 161867 | 185416
12 | 41:12.17 | 3:24.08 | 185417 | 200724

Track 1

Filename C:\Hi there RIAA, What’s up IFPI\The Damned – Not Of This Earth\01 – I Need A Life.wav

Pre-gap length 0:00:02.42

Peak level 92.7 %
Track quality 100.0 %
Test CRC D1CB9813
Copy CRC D1CB9813
Track not present in AccurateRip database
Copy OK

Track 2

Filename C:\Hi there RIAA, What’s up IFPI\The Damned – Not Of This Earth\02 – Testify.wav

Peak level 100.0 %
Track quality 100.0 %
Test CRC BB2E34B0
Copy CRC BB2E34B0
Track not present in AccurateRip database
Copy OK

Track 3

Filename C:\Hi there RIAA, What’s up IFPI\The Damned – Not Of This Earth\03 – Shut It.wav

Peak level 67.8 %
Track quality 100.0 %
Test CRC 1B0D7817
Copy CRC 1B0D7817
Track not present in AccurateRip database
Copy OK

Track 4

Filename C:\Hi there RIAA, What’s up IFPI\The Damned – Not Of This Earth\04 – Tailspin.wav

Pre-gap length 0:00:03.22

Peak level 100.0 %
Track quality 100.0 %
Test CRC 958F85CC
Copy CRC 958F85CC
Track not present in AccurateRip database
Copy OK

Track 5

Filename C:\Hi there RIAA, What’s up IFPI\The Damned – Not Of This Earth\05 – Not Of This Earth.wav

Pre-gap length 0:00:03.02

Peak level 100.0 %
Track quality 99.9 %
Test CRC C172BBE3
Copy CRC C172BBE3
Track not present in AccurateRip database
Copy OK

Track 6

Filename C:\Hi there RIAA, What’s up IFPI\The Damned – Not Of This Earth\06 – Running Man.wav

Pre-gap length 0:00:04.06

Peak level 100.0 %
Track quality 100.0 %
Test CRC B430D6C4
Copy CRC B430D6C4
Track not present in AccurateRip database
Copy OK

Track 7

Filename C:\Hi there RIAA, What’s up IFPI\The Damned – Not Of This Earth\07 – My Desire.wav

Pre-gap length 0:00:03.77

Peak level 100.0 %
Track quality 100.0 %
Test CRC B662C092
Copy CRC B662C092
Track not present in AccurateRip database
Copy OK

Track 8

Filename C:\Hi there RIAA, What’s up IFPI\The Damned – Not Of This Earth\08 – Never Could Believe.wav

Pre-gap length 0:00:03.84

Peak level 100.0 %
Track quality 100.0 %
Test CRC DA94FE72
Copy CRC DA94FE72
Track not present in AccurateRip database
Copy OK

Track 9

Filename C:\Hi there RIAA, What’s up IFPI\The Damned – Not Of This Earth\09 – Heaven … Can Take Your Lies.wav

Pre-gap length 0:00:03.93

Peak level 79.4 %
Track quality 100.0 %
Test CRC 042D01C9
Copy CRC 042D01C9
Track not present in AccurateRip database
Copy OK

Track 10

Filename C:\Hi there RIAA, What’s up IFPI\The Damned – Not Of This Earth\10 – Shadow To Fall.wav

Pre-gap length 0:00:03.76

Peak level 100.0 %
Track quality 100.0 %
Test CRC 112351F2
Copy CRC 112351F2
Track not present in AccurateRip database
Copy OK

Track 11

Filename C:\Hi there RIAA, What’s up IFPI\The Damned – Not Of This Earth\11 – No More Tears.wav

Pre-gap length 0:00:02.93

Peak level 83.0 %
Track quality 100.0 %
Test CRC AC8E0954
Copy CRC AC8E0954
Track not present in AccurateRip database
Copy OK

Track 12

Filename C:\Hi there RIAA, What’s up IFPI\The Damned – Not Of This Earth\12 – Prokofiev.wav

Pre-gap length 0:00:02.66

Peak level 48.3 %
Track quality 100.0 %
Test CRC E233E113
Copy CRC E233E113
Track not present in AccurateRip database
Copy OK

None of the tracks are present in the AccurateRip database

No errors occurred

End of status report

EM DATE 1996
REM DISCID A80A740C
REM COMMENT “ExactAudioCopy v0.99pb4”
PERFORMER “The Damned”
TITLE “Not Of This Earth”
FILE “01 – I Need A Life.flac” WAVE
TRACK 01 AUDIO
TITLE “I Need A Life”
PERFORMER “The Damned”
PREGAP 00:00:32
INDEX 01 00:00:00
FILE “02 – Testify.flac” WAVE
TRACK 02 AUDIO
TITLE “Testify”
PERFORMER “The Damned”
INDEX 01 00:00:00
FILE “03 – Shut It.flac” WAVE
TRACK 03 AUDIO
TITLE “Shut It”
PERFORMER “The Damned”
INDEX 01 00:00:00
TRACK 04 AUDIO
TITLE “Tailspin”
PERFORMER “The Damned”
INDEX 00 02:44:73
FILE “04 – Tailspin.flac” WAVE
INDEX 01 00:00:00
TRACK 05 AUDIO
TITLE “Not Of This Earth”
PERFORMER “The Damned”
INDEX 00 04:10:03
FILE “05 – Not Of This Earth.flac” WAVE
INDEX 01 00:00:00
TRACK 06 AUDIO
TITLE “Running Man”
PERFORMER “The Damned”
INDEX 00 02:50:70
FILE “06 – Running Man.flac” WAVE
INDEX 01 00:00:00
TRACK 07 AUDIO
TITLE “My Desire”
PERFORMER “The Damned”
INDEX 00 05:02:52
FILE “07 – My Desire.flac” WAVE
INDEX 01 00:00:00
TRACK 08 AUDIO
TITLE “Never Could Believe”
PERFORMER “The Damned”
INDEX 00 02:44:20
FILE “08 – Never Could Believe.flac” WAVE
INDEX 01 00:00:00
TRACK 09 AUDIO
TITLE “Heaven … Can Take Your Lies”
PERFORMER “The Damned”
INDEX 00 04:54:00
FILE “09 – Heaven … Can Take Your Lies.flac” WAVE
INDEX 01 00:00:00
TRACK 10 AUDIO
TITLE “Shadow To Fall”
PERFORMER “The Damned”
INDEX 00 03:46:00
FILE “10 – Shadow To Fall.flac” WAVE
INDEX 01 00:00:00
TRACK 11 AUDIO
TITLE “No More Tears”
PERFORMER “The Damned”
INDEX 00 02:59:70
FILE “11 – No More Tears.flac” WAVE
INDEX 01 00:00:00
TRACK 12 AUDIO
TITLE “Prokofiev”
PERFORMER “The Damned”
INDEX 00 05:11:25
FILE “12 – Prokofiev.flac” WAVE
INDEX 01 00:00:00


0

Publication author

offline 7 days

Chaos

3
Comments: 4Publics: 3565Registration: 02-02-2019
Spread the Download

Leave a Reply

Your email address will not be published. Required fields are marked *

Enter the text from the image below
 

This site uses Akismet to reduce spam. Learn how your comment data is processed.