The Damned – Machine Gun Etiquette (25th Anniversary Edition)




No Cover available

Artist: The Damned
Year: 1979/2004
Genre: Punk
Notes: Discogs
Add. Notes: 25th Anniversary Edition
Watch Songs on: YouTube
Cover incl.: Yes
Encoder: FLAC
Bitrate: ~1000 kBit/s (44.1 kHz/16 Bit/s)
Log & Cue incl.: Yes/Yes
Size: 433 MB
Password: “slam” (without ” “)


All Downloads/Hosters are compatible

Download 1
KatFile.com
Turbobit.net
Rapidgator.net
FileFactory.com
Download 2
KatFile.com
Turbobit.net
Rapidgator.net
FileFactory.com

Tracklist:

1 Love Song 2:21
2 Machine Gun Etiquette 1:49
3 I Just Can't Be Happy Today 3:43
4 Melody Lee 2:07
5 Anti-Pope 3:20
6 These Hands 2:02
7 Plan 9 Channel 7 5:08
8 Noise, Noise, Noise 3:11
9 Looking At You 5:07
10 Liar 2:44
11 Smash It Up (Parts 1 & 2) 5:13

Bonus Tracks
12 Love Song (Ed Hollis Version) 2:03
13 Noise, Noise, Noise (Ed Hollis Version) 3:25
14 Suicide 3:17
15 Smash It Up (Part 2) (Backing Track - Singalonga 
Damned) 2:56
16 Smash It Up (Part 4) 1:57
17 Burglar 3:33
18 I Just Can't Be Happy Today (DJ Edit) 3:00
19 Ballroom Blitz 3:28
20 Turkey Song 1:32

EAC-Log, CUE-Sheed & NFO:

Click to open spoiler
Exact Audio Copy V0.99 prebeta 4 from 23. January 2008

Отчёт EAC об извлечении, выполненном 5. сентября 2009, 14:39

The Damned / Machine Gun Etiquette

Дисковод: ASUS DRW-1608P2S Adapter: 2 ID: 1

Режим чтения : Достоверность
Использование точного потока : Да
Отключение кэша аудио : Да
Использование указателей C2 : Нет

Коррекция смещения при чтении : 48
Способность читать области Lead-in и Lead-out : Нет
Заполнение пропущенных сэмплов тишиной : Да
Удаление блоков с тишиной в начале и конце : Нет
При вычислениях CRC использовались нулевые сэмплы : Да
Интерфейс : Встроенный Win32-интерфейс для Win NT/2000

Выходной формат : Внутренние WAV-операции
Формат сэмплов : 44.100 Гц; 16 бит; стерео

TOC извлечённого CD

Трек | Старт | Длительность | Начальный сектор | Конечный сектор
———————————————————————
1 | 0:00.00 | 2:21.69 | 0 | 10643
2 | 2:21.69 | 1:49.02 | 10644 | 18820
3 | 4:10.71 | 3:43.17 | 18821 | 35562
4 | 7:54.13 | 2:07.38 | 35563 | 45125
5 | 10:01.51 | 3:20.72 | 45126 | 60197
6 | 13:22.48 | 2:02.68 | 60198 | 69415
7 | 15:25.41 | 5:08.42 | 69416 | 92557
8 | 20:34.08 | 3:11.08 | 92558 | 106890
9 | 23:45.16 | 5:07.01 | 106891 | 129916
10 | 28:52.17 | 2:44.62 | 129917 | 142278
11 | 31:37.04 | 5:13.50 | 142279 | 165803
12 | 36:50.54 | 2:03.31 | 165804 | 175059
13 | 38:54.10 | 3:25.63 | 175060 | 190497
14 | 42:19.73 | 3:17.71 | 190498 | 205343
15 | 45:37.69 | 2:56.34 | 205344 | 218577
16 | 48:34.28 | 1:57.44 | 218578 | 227396
17 | 50:31.72 | 3:33.58 | 227397 | 243429
18 | 54:05.55 | 3:00.35 | 243430 | 256964
19 | 57:06.15 | 3:28.10 | 256965 | 272574
20 | 60:34.25 | 1:32.09 | 272575 | 279483

Характеристики диапазона извлечения и сообщения об ошибках

Выбранный диапазон

Имя файла D:\Download\Upload\1979 – Machine Gun Etiquette\The Damned – Machine Gun Etiquette.wav

Пиковый уровень 100.0 %
Качество диапазона 99.9 %
CRC копии 78423E5D
Копирование… OK

Ошибок не произошло

AccurateRip: сводка

Трек 1 точное извлечение (доверие 1) [8F45702A]
Трек 2 точное извлечение (доверие 1) [FDE88DDC]
Трек 3 точное извлечение (доверие 1) [09516A6B]
Трек 4 точное извлечение (доверие 1) [3A07256F]
Трек 5 точное извлечение (доверие 1) [08CC85B5]
Трек 6 точное извлечение (доверие 1) [99C80D07]
Трек 7 точное извлечение (доверие 1) [0ACD07DD]
Трек 8 точное извлечение (доверие 1) [44CC3CEE]
Трек 9 точное извлечение (доверие 1) [A902D388]
Трек 10 точное извлечение (доверие 1) [56269ADD]
Трек 11 точное извлечение (доверие 1) [EA7D4932]
Трек 12 точное извлечение (доверие 1) [4E6587FE]
Трек 13 точное извлечение (доверие 1) [7EF127D5]
Трек 14 точное извлечение (доверие 1) [E6594FFE]
Трек 15 точное извлечение (доверие 1) [D9FF3FDD]
Трек 16 точное извлечение (доверие 1) [3589C6CE]
Трек 17 точное извлечение (доверие 1) [8CBDCC84]
Трек 18 точное извлечение (доверие 1) [4F0A96F0]
Трек 19 точное извлечение (доверие 1) [1524EE35]
Трек 20 точное извлечение (доверие 1) [412BBF51]

Все треки извлечены точно

Конец отчёта

REM GENRE Punk
REM DATE 1979
REM DISCID 140E8E14
REM COMMENT “ExactAudioCopy v0.99pb4”
PERFORMER “The Damned”
TITLE “Machine Gun Etiquette”
FILE “The Damned – Machine Gun Etiquette.flac” WAVE
TRACK 01 AUDIO
TITLE “Love Song”
PERFORMER “The Damned”
INDEX 01 00:00:00
TRACK 02 AUDIO
TITLE “Machine Gun Etiquette”
PERFORMER “The Damned”
INDEX 01 02:21:69
TRACK 03 AUDIO
TITLE “I Just Can’t be Happy Today”
PERFORMER “The Damned”
INDEX 01 04:10:71
TRACK 04 AUDIO
TITLE “Melody Lee”
PERFORMER “The Damned”
INDEX 01 07:54:13
TRACK 05 AUDIO
TITLE “Anti-Pope”
PERFORMER “The Damned”
INDEX 01 10:01:51
TRACK 06 AUDIO
TITLE “These Hands”
PERFORMER “The Damned”
INDEX 01 13:22:48
TRACK 07 AUDIO
TITLE “Plan 9 Channel 7”
PERFORMER “The Damned”
INDEX 01 15:25:41
TRACK 08 AUDIO
TITLE “Noise, Noise, Noise”
PERFORMER “The Damned”
INDEX 01 20:34:08
TRACK 09 AUDIO
TITLE “Looking at You”
PERFORMER “The Damned”
INDEX 01 23:45:16
TRACK 10 AUDIO
TITLE “Liar”
PERFORMER “The Damned”
INDEX 01 28:52:17
TRACK 11 AUDIO
TITLE “Smash it Up”
PERFORMER “The Damned”
INDEX 01 31:37:04
TRACK 12 AUDIO
TITLE “Love Song (Ed Hollis Version)”
PERFORMER “The Damned”
INDEX 01 36:50:54
TRACK 13 AUDIO
TITLE “Noise, Noise, Noise (Ed Hollis Version)”
PERFORMER “The Damned”
INDEX 01 38:54:10
TRACK 14 AUDIO
TITLE “Suicide”
PERFORMER “The Damned”
INDEX 01 42:19:73
TRACK 15 AUDIO
TITLE “Smash It Up Part 2 (Backing Track – Singalonga Damned)”
PERFORMER “The Damned”
INDEX 01 45:37:69
TRACK 16 AUDIO
TITLE “Smash it Up Part 4”
PERFORMER “The Damned”
INDEX 01 48:34:28
TRACK 17 AUDIO
TITLE “Burglar”
PERFORMER “The Damned”
INDEX 01 50:31:72
TRACK 18 AUDIO
TITLE “I Just Can’t Be Happy Today (DJ Edit)”
PERFORMER “The Damned”
INDEX 01 54:05:55
TRACK 19 AUDIO
TITLE “Ballroom Blitz”
PERFORMER “The Damned”
INDEX 01 57:06:15
TRACK 20 AUDIO
TITLE “Turkey Song”
PERFORMER “The Damned”
INDEX 01 60:34:25


Leave a Reply

Your email address will not be published. Required fields are marked *

This site uses Akismet to reduce spam. Learn how your comment data is processed.