The Damned – Damned Damned Damned (30th Anniversary Expanded Edition)




No Cover available


Artist: The Damned
Year: 1977/2007
Genre: Punk
Notes: Discogs
Add. Notes:
Watch Songs on: YouTube
Cover incl.: Yes
Encoder: FLAC
Bitrate: ~1000 kBit/s (44.1 kHz/16 Bit/s)
Log & Cue incl.: Yes/Yes
Size: 878,6 MB
Password: “slam” (without ” “)


All Downloads/Hosters are compatible

Download 1
KatFile.com
Turbobit.net
Rapidgator.net
FileFactory.com
Download 2
KatFile.com
Turbobit.net
Rapidgator.net
FileFactory.com

Tracklist:

CD 1: Original Album
1 Neat Neat Neat 2:42
2 Fan Club 2:55
3 I Fall 2:04
4 Born To Kill 2:35
5 Stab Your Back 0:58
6 Feel The Pain 3:34
7 New Rose 2:42
8 Fish 1:36
9 See Her Tonite 2:27
10 1 Of The 2 3:06
11 So Messed Up 1:49
12 I Feel Alright 4:25

CD 2: Bonus Tracks
1 I Fall 2:55
2 See Her Tonight 2:38
3 Feel The Pain 5:09
4 Help 1:41
5 Stab Your Back 0:57
6 Neat Neat Neat 2:37
7 New Rose 2:38
8 So Messed Up 2:26
9 I Fall 2:08
10 Singalongascabies 0:58
11 Fan Club 3:01
12 Feel The Pain 3:31
13 Stretcher Case Baby 1:46
14 Sick Of Being Sick 2:27
15 I Feel Alright 4:49
16 Born To Kill 3:01
17 Sick Of Being Sick 2:50
18 Neat Neat Neat 2:56
19 Fan Club 2:55
20 Stretcher Case Baby 2:26
21 Help 1:32
22 Stab Your Back 1:02
23 So Messed Up 2:35
24 New Rose 3:24
25 Stretcher Case Baby 2:12
26 Sick Of Being Sick 1:57

CD 3: Live @ The 100 Club
1 1 Of The 2 3:43
2 New Rose 2:57
3 Alone 3:50
4 Help 1:47
5 Fan CLub 3:01
6 I Feel Alright 4:20
7 Feel The Pain 4:46
8 Fish 1:50
9 Circles 4:42
10 See Her Tonite 2:51
11 I Fall 3:08
12 So Messed Up 2:36

EAC-Log, CUE-Sheed & NFO:

Click to open spoiler
Exact Audio Copy V0.99 prebeta 4 from 23. January 2008

EAC extraction logfile from 30. December 2008, 18:08

Damned / Damned Damned Damned (30th Anniversary Edition – Disc 1 – Original Album)

Used drive : HL-DT-STDVDRAM GH20NS10 Adapter: 3 ID: 0

Read mode : Secure
Utilize accurate stream : Yes
Defeat audio cache : Yes
Make use of C2 pointers : No

Read offset correction : 667
Overread into Lead-In and Lead-Out : No
Fill up missing offset samples with silence : Yes
Delete leading and trailing silent blocks : No
Null samples used in CRC calculations : Yes
Used interface : Native Win32 interface for Win NT & 2000
Gap handling : Appended to previous track

Used output format : User Defined Encoder
Selected bitrate : 128 kBit/s
Quality : High
Add ID3 tag : No
Command line compressor : C:\Program Files\Exact Audio Copy\Flac\flac.exe
Additional command line options : -V -8 -T “artist=%a” -T “title=%t” -T “album=%g” -T “date=%y” -T “tracknumber=%n” -T “genre=%m” %s

TOC of the extracted CD

Track | Start | Length | Start sector | End sector
———————————————————
1 | 0:00.00 | 2:43.26 | 0 | 12250
2 | 2:43.26 | 2:57.12 | 12251 | 25537
3 | 5:40.38 | 2:06.29 | 25538 | 35016
4 | 7:46.67 | 2:37.09 | 35017 | 46800
5 | 10:24.01 | 1:00.09 | 46801 | 51309
6 | 11:24.10 | 3:36.65 | 51310 | 67574
7 | 15:01.00 | 2:44.01 | 67575 | 79875
8 | 17:45.01 | 1:38.71 | 79876 | 87296
9 | 19:23.72 | 2:29.62 | 87297 | 98533
10 | 21:53.59 | 3:08.39 | 98534 | 112672
11 | 25:02.23 | 1:51.65 | 112673 | 121062
12 | 26:54.13 | 4:27.15 | 121063 | 141102

Track 1

Filename C:\FLAC Rips\Damned – Damned Damned Damned (30th Anniversary Edition – Disc 1 – Original Album)\01 – Neat Neat Neat.wav

Pre-gap length 0:00:02.00

Peak level 81.4 %
Track quality 99.9 %
Test CRC 4B75D6EC
Copy CRC 4B75D6EC
Accurately ripped (confidence 2) [754C53BC]
Copy OK

Track 2

Filename C:\FLAC Rips\Damned – Damned Damned Damned (30th Anniversary Edition – Disc 1 – Original Album)\02 – Fan Club.wav

Pre-gap length 0:00:01.77

Peak level 99.6 %
Track quality 100.0 %
Test CRC A46B44FD
Copy CRC A46B44FD
Accurately ripped (confidence 2) [7148A9CF]
Copy OK

Track 3

Filename C:\FLAC Rips\Damned – Damned Damned Damned (30th Anniversary Edition – Disc 1 – Original Album)\03 – I Fall.wav

Pre-gap length 0:00:01.77

Peak level 99.5 %
Track quality 100.0 %
Test CRC 89BD9790
Copy CRC 89BD9790
Accurately ripped (confidence 2) [9ADE24EE]
Copy OK

Track 4

Filename C:\FLAC Rips\Damned – Damned Damned Damned (30th Anniversary Edition – Disc 1 – Original Album)\04 – Born To Kill.wav

Pre-gap length 0:00:01.77

Peak level 99.6 %
Track quality 100.0 %
Test CRC 259FDEE7
Copy CRC 259FDEE7
Accurately ripped (confidence 2) [309636A1]
Copy OK

Track 5

Filename C:\FLAC Rips\Damned – Damned Damned Damned (30th Anniversary Edition – Disc 1 – Original Album)\05 – Stab Yor Back.wav

Pre-gap length 0:00:01.77

Peak level 99.3 %
Track quality 99.8 %
Test CRC 7B6DCB38
Copy CRC 7B6DCB38
Accurately ripped (confidence 2) [185B813C]
Copy OK

Track 6

Filename C:\FLAC Rips\Damned – Damned Damned Damned (30th Anniversary Edition – Disc 1 – Original Album)\06 – Feel The Pain.wav

Pre-gap length 0:00:01.77

Peak level 99.6 %
Track quality 100.0 %
Test CRC 2E1F7A6D
Copy CRC 2E1F7A6D
Accurately ripped (confidence 2) [1EFB039F]
Copy OK

Track 7

Filename C:\FLAC Rips\Damned – Damned Damned Damned (30th Anniversary Edition – Disc 1 – Original Album)\07 – New Rose.wav

Pre-gap length 0:00:01.77

Peak level 99.6 %
Track quality 99.9 %
Test CRC C8CF5620
Copy CRC C8CF5620
Accurately ripped (confidence 2) [771CF21A]
Copy OK

Track 8

Filename C:\FLAC Rips\Damned – Damned Damned Damned (30th Anniversary Edition – Disc 1 – Original Album)\08 – Fish.wav

Pre-gap length 0:00:01.77

Peak level 99.5 %
Track quality 99.8 %
Test CRC 6DAF3944
Copy CRC 6DAF3944
Accurately ripped (confidence 2) [0105022D]
Copy OK

Track 9

Filename C:\FLAC Rips\Damned – Damned Damned Damned (30th Anniversary Edition – Disc 1 – Original Album)\09 – See Her Tonite.wav

Pre-gap length 0:00:01.77

Peak level 99.5 %
Track quality 100.0 %
Test CRC D68F6DB6
Copy CRC D68F6DB6
Accurately ripped (confidence 2) [1ECC3EED]
Copy OK

Track 10

Filename C:\FLAC Rips\Damned – Damned Damned Damned (30th Anniversary Edition – Disc 1 – Original Album)\10 – 1 Of The 2.wav

Pre-gap length 0:00:01.77

Peak level 99.6 %
Track quality 100.0 %
Test CRC D555811A
Copy CRC D555811A
Accurately ripped (confidence 2) [22EB68A1]
Copy OK

Track 11

Filename C:\FLAC Rips\Damned – Damned Damned Damned (30th Anniversary Edition – Disc 1 – Original Album)\11 – So Messed Up.wav

Pre-gap length 0:00:01.77

Peak level 99.6 %
Track quality 100.0 %
Test CRC B5E2248B
Copy CRC B5E2248B
Accurately ripped (confidence 2) [D63D11D1]
Copy OK

Track 12

Filename C:\FLAC Rips\Damned – Damned Damned Damned (30th Anniversary Edition – Disc 1 – Original Album)\12 – I Feel Alright.wav

Pre-gap length 0:00:01.77

Peak level 99.6 %
Track quality 100.0 %
Test CRC 55105070
Copy CRC 55105070
Accurately ripped (confidence 2) [A4D4DD27]
Copy OK

All tracks accurately ripped

No errors occurred

End of status report

Exact Audio Copy V0.99 prebeta 4 from 23. January 2008

EAC extraction logfile from 30. December 2008, 18:54

Damned / Damned Damned Damned (30th Anniversary Edition – Disc 2 – Bonus Tracks)

Used drive : HL-DT-STDVDRAM GH20NS10 Adapter: 3 ID: 0

Read mode : Secure
Utilize accurate stream : Yes
Defeat audio cache : Yes
Make use of C2 pointers : No

Read offset correction : 667
Overread into Lead-In and Lead-Out : No
Fill up missing offset samples with silence : Yes
Delete leading and trailing silent blocks : No
Null samples used in CRC calculations : Yes
Used interface : Native Win32 interface for Win NT & 2000
Gap handling : Appended to previous track

Used output format : User Defined Encoder
Selected bitrate : 128 kBit/s
Quality : High
Add ID3 tag : No
Command line compressor : C:\Program Files\Exact Audio Copy\Flac\flac.exe
Additional command line options : -V -8 -T “artist=%a” -T “title=%t” -T “album=%g” -T “date=%y” -T “tracknumber=%n” -T “genre=%m” %s

TOC of the extracted CD

Track | Start | Length | Start sector | End sector
———————————————————
1 | 0:00.00 | 2:56.61 | 0 | 13260
2 | 2:56.61 | 2:40.59 | 13261 | 25319
3 | 5:37.45 | 5:11.52 | 25320 | 48696
4 | 10:49.22 | 1:43.06 | 48697 | 56427
5 | 12:32.28 | 0:59.46 | 56428 | 60898
6 | 13:31.74 | 2:39.55 | 60899 | 72878
7 | 16:11.54 | 2:40.69 | 72879 | 84947
8 | 18:52.48 | 2:28.11 | 84948 | 96058
9 | 21:20.59 | 2:10.73 | 96059 | 105881
10 | 23:31.57 | 1:00.54 | 105882 | 110435
11 | 24:32.36 | 3:03.67 | 110436 | 124227
12 | 27:36.28 | 3:33.62 | 124228 | 140264
13 | 31:10.15 | 1:48.33 | 140265 | 148397
14 | 32:58.48 | 2:29.30 | 148398 | 159602
15 | 35:28.03 | 4:49.13 | 159603 | 181290
16 | 40:17.16 | 3:01.14 | 181291 | 194879
17 | 43:18.30 | 2:50.34 | 194880 | 207663
18 | 46:08.64 | 2:56.74 | 207664 | 220937
19 | 49:05.63 | 2:55.49 | 220938 | 234111
20 | 52:01.37 | 2:26.47 | 234112 | 245108
21 | 54:28.09 | 1:32.40 | 245109 | 252048
22 | 56:00.49 | 1:02.19 | 252049 | 256717
23 | 57:02.68 | 2:35.28 | 256718 | 268370
24 | 59:38.21 | 3:26.01 | 268371 | 283821
25 | 63:04.22 | 2:14.26 | 283822 | 293897
26 | 65:18.48 | 1:59.51 | 293898 | 302873

Track 1

Filename C:\FLAC Rips\Damned – Damned Damned Damned (30th Anniversary Edition – Disc 2 – Bonus Tracks)\01 – I Fall (Demo June 1976).wav

Pre-gap length 0:00:02.00

Peak level 98.9 %
Track quality 100.0 %
Test CRC 7944B477
Copy CRC 7944B477
Accurately ripped (confidence 4) [8A2A3F5E]
Copy OK

Track 2

Filename C:\FLAC Rips\Damned – Damned Damned Damned (30th Anniversary Edition – Disc 2 – Bonus Tracks)\02 – See Her Tonite (Demo June 1976).wav

Pre-gap length 0:00:01.77

Peak level 99.6 %
Track quality 100.0 %
Test CRC 71C54404
Copy CRC 71C54404
Accurately ripped (confidence 4) [BB6E625A]
Copy OK

Track 3

Filename C:\FLAC Rips\Damned – Damned Damned Damned (30th Anniversary Edition – Disc 2 – Bonus Tracks)\03 – Feel The Pain (Demo June 1976).wav

Pre-gap length 0:00:01.77

Peak level 99.6 %
Track quality 100.0 %
Test CRC DDCF8A20
Copy CRC DDCF8A20
Accurately ripped (confidence 4) [253B192B]
Copy OK

Track 4

Filename C:\FLAC Rips\Damned – Damned Damned Damned (30th Anniversary Edition – Disc 2 – Bonus Tracks)\04 – Help (Stiff B-Side October 1976).wav

Pre-gap length 0:00:01.77

Peak level 99.7 %
Track quality 100.0 %
Test CRC 69EBC4C9
Copy CRC 69EBC4C9
Accurately ripped (confidence 5) [CFB64187]
Copy OK

Track 5

Filename C:\FLAC Rips\Damned – Damned Damned Damned (30th Anniversary Edition – Disc 2 – Bonus Tracks)\05 – Stab Yor Back (Peel Session 1976-11-30).wav

Pre-gap length 0:00:01.77

Peak level 89.3 %
Track quality 100.0 %
Test CRC 1E1F729B
Copy CRC 1E1F729B
Accurately ripped (confidence 4) [C7158B83]
Copy OK

Track 6

Filename C:\FLAC Rips\Damned – Damned Damned Damned (30th Anniversary Edition – Disc 2 – Bonus Tracks)\06 – Neat Neat Neat (Peel Session 1976-11-30).wav

Pre-gap length 0:00:01.77

Peak level 89.7 %
Track quality 99.9 %
Test CRC 3A792BE8
Copy CRC 3A792BE8
Accurately ripped (confidence 4) [0C6325DC]
Copy OK

Track 7

Filename C:\FLAC Rips\Damned – Damned Damned Damned (30th Anniversary Edition – Disc 2 – Bonus Tracks)\07 – New Rose (Peel Session 1976-11-30).wav

Pre-gap length 0:00:01.77

Peak level 99.2 %
Track quality 100.0 %
Test CRC 70E5A191
Copy CRC 70E5A191
Accurately ripped (confidence 4) [C091557F]
Copy OK

Track 8

Filename C:\FLAC Rips\Damned – Damned Damned Damned (30th Anniversary Edition – Disc 2 – Bonus Tracks)\08 – So Messed Up (Peel Session 1976-11-30).wav

Pre-gap length 0:00:01.77

Peak level 93.6 %
Track quality 100.0 %
Test CRC A3CEFC3E
Copy CRC A3CEFC3E
Accurately ripped (confidence 4) [65E61D9F]
Copy OK

Track 9

Filename C:\FLAC Rips\Damned – Damned Damned Damned (30th Anniversary Edition – Disc 2 – Bonus Tracks)\09 – I Fall (Peel Session 1976-11-30).wav

Pre-gap length 0:00:01.77

Peak level 89.4 %
Track quality 100.0 %
Test CRC A14A141E
Copy CRC A14A141E
Accurately ripped (confidence 4) [7493EA04]
Copy OK

Track 10

Filename C:\FLAC Rips\Damned – Damned Damned Damned (30th Anniversary Edition – Disc 2 – Bonus Tracks)\10 – Singalongscabies (Stiff B-Side February 1977).wav

Pre-gap length 0:00:01.77

Peak level 99.6 %
Track quality 100.0 %
Test CRC D100A133
Copy CRC D100A133
Accurately ripped (confidence 4) [1CC3E270]
Copy OK

Track 11

Filename C:\FLAC Rips\Damned – Damned Damned Damned (30th Anniversary Edition – Disc 2 – Bonus Tracks)\11 – Fan Club (Peel Session 1977-05-05).wav

Pre-gap length 0:00:01.77

Peak level 97.3 %
Track quality 100.0 %
Test CRC F300395C
Copy CRC F300395C
Accurately ripped (confidence 4) [BD181749]
Copy OK

Track 12

Filename C:\FLAC Rips\Damned – Damned Damned Damned (30th Anniversary Edition – Disc 2 – Bonus Tracks)\12 – Feel The Pain (Peel Session 1977-05-05).wav

Pre-gap length 0:00:01.77

Peak level 97.8 %
Track quality 99.9 %
Test CRC A747A8EA
Copy CRC A747A8EA
Accurately ripped (confidence 4) [00FEBDE7]
Copy OK

Track 13

Filename C:\FLAC Rips\Damned – Damned Damned Damned (30th Anniversary Edition – Disc 2 – Bonus Tracks)\13 – Stretcher Case Baby (Peel Session 1977-05-05).wav

Pre-gap length 0:00:01.77

Peak level 91.0 %
Track quality 100.0 %
Test CRC 8C44CD20
Copy CRC 8C44CD20
Accurately ripped (confidence 4) [AB740D97]
Copy OK

Track 14

Filename C:\FLAC Rips\Damned – Damned Damned Damned (30th Anniversary Edition – Disc 2 – Bonus Tracks)\14 – Sick Of Being Sick (Peel Session 1977-05-05).wav

Pre-gap length 0:00:01.77

Peak level 99.1 %
Track quality 99.9 %
Test CRC 78271007
Copy CRC 78271007
Accurately ripped (confidence 4) [3EEDCC69]
Copy OK

Track 15

Filename C:\FLAC Rips\Damned – Damned Damned Damned (30th Anniversary Edition – Disc 2 – Bonus Tracks)\15 – I Feel Alright (In Concert 1977-05-19).wav

Pre-gap length 0:00:01.77

Peak level 98.9 %
Track quality 100.0 %
Test CRC 9237CE84
Copy CRC 9237CE84
Accurately ripped (confidence 4) [3BB679D0]
Copy OK

Track 16

Filename C:\FLAC Rips\Damned – Damned Damned Damned (30th Anniversary Edition – Disc 2 – Bonus Tracks)\16 – Born To Kill (In Concert 1977-05-19).wav

Peak level 95.7 %
Track quality 100.0 %
Test CRC 7A409706
Copy CRC 7A409706
Accurately ripped (confidence 4) [6CE9D12D]
Copy OK

Track 17

Filename C:\FLAC Rips\Damned – Damned Damned Damned (30th Anniversary Edition – Disc 2 – Bonus Tracks)\17 – Sick Of Being Sick (In Concert 1977-05-19).wav

Peak level 98.6 %
Track quality 100.0 %
Test CRC 63E95E5D
Copy CRC 63E95E5D
Accurately ripped (confidence 4) [9181D60A]
Copy OK

Track 18

Filename C:\FLAC Rips\Damned – Damned Damned Damned (30th Anniversary Edition – Disc 2 – Bonus Tracks)\18 – Neat Neat Neat (In Concert 1977-05-19).wav

Peak level 98.5 %
Track quality 99.9 %
Test CRC A5D29670
Copy CRC A5D29670
Accurately ripped (confidence 4) [DB535521]
Copy OK

Track 19

Filename C:\FLAC Rips\Damned – Damned Damned Damned (30th Anniversary Edition – Disc 2 – Bonus Tracks)\19 – Fan Club (In Concert 1977-05-19).wav

Peak level 97.9 %
Track quality 99.9 %
Test CRC 6A4C8588
Copy CRC 6A4C8588
Accurately ripped (confidence 4) [BC4D1ADF]
Copy OK

Track 20

Filename C:\FLAC Rips\Damned – Damned Damned Damned (30th Anniversary Edition – Disc 2 – Bonus Tracks)\20 – Stretcher Case Baby (In Concert 1977-05-19).wav

Peak level 99.5 %
Track quality 100.0 %
Test CRC 294BAF84
Copy CRC 294BAF84
Accurately ripped (confidence 4) [1F6DF3CF]
Copy OK

Track 21

Filename C:\FLAC Rips\Damned – Damned Damned Damned (30th Anniversary Edition – Disc 2 – Bonus Tracks)\21 – Help (In Concert 1977-05-19).wav

Peak level 99.7 %
Track quality 100.0 %
Test CRC 770F9869
Copy CRC 770F9869
Accurately ripped (confidence 4) [EFDF21B1]
Copy OK

Track 22

Filename C:\FLAC Rips\Damned – Damned Damned Damned (30th Anniversary Edition – Disc 2 – Bonus Tracks)\22 – Stab Yor Back (In Concert 1977-05-19).wav

Peak level 99.6 %
Track quality 100.0 %
Test CRC 0D90187D
Copy CRC 0D90187D
Accurately ripped (confidence 4) [B776B94C]
Copy OK

Track 23

Filename C:\FLAC Rips\Damned – Damned Damned Damned (30th Anniversary Edition – Disc 2 – Bonus Tracks)\23 – So Messed Up (In Concert 1977-05-19).wav

Peak level 99.6 %
Track quality 99.9 %
Test CRC A2AC7CA8
Copy CRC A2AC7CA8
Accurately ripped (confidence 4) [44DF4CE7]
Copy OK

Track 24

Filename C:\FLAC Rips\Damned – Damned Damned Damned (30th Anniversary Edition – Disc 2 – Bonus Tracks)\24 – New Rose (In Concert 1977-05-19).wav

Peak level 99.6 %
Track quality 100.0 %
Test CRC 1B2B97A8
Copy CRC 1B2B97A8
Accurately ripped (confidence 4) [DB42F635]
Copy OK

Track 25

Filename C:\FLAC Rips\Damned – Damned Damned Damned (30th Anniversary Edition – Disc 2 – Bonus Tracks)\25 – Stretcher Case Baby (Stiff Single July 1977).wav

Pre-gap length 0:00:01.77

Peak level 99.6 %
Track quality 100.0 %
Test CRC 69D6A5C4
Copy CRC 69D6A5C4
Accurately ripped (confidence 4) [5013E232]
Copy OK

Track 26

Filename C:\FLAC Rips\Damned – Damned Damned Damned (30th Anniversary Edition – Disc 2 – Bonus Tracks)\26 – Sick Of Being Sick (Stiff Single July 1977).wav

Pre-gap length 0:00:01.77

Peak level 88.9 %
Track quality 100.0 %
Test CRC A6A823C3
Copy CRC A6A823C3
Accurately ripped (confidence 4) [79503E4E]
Copy OK

All tracks accurately ripped

No errors occurred

End of status report

Exact Audio Copy V0.99 prebeta 4 from 23. January 2008

EAC extraction logfile from 30. December 2008, 19:59

Damned / Damned Damned Damned (30th Anniversary Edition – Disc 3 – Live At The 100 Club 1977-07-06)

Used drive : HL-DT-STDVDRAM GH20NS10 Adapter: 3 ID: 0

Read mode : Secure
Utilize accurate stream : Yes
Defeat audio cache : Yes
Make use of C2 pointers : No

Read offset correction : 667
Overread into Lead-In and Lead-Out : No
Fill up missing offset samples with silence : Yes
Delete leading and trailing silent blocks : No
Null samples used in CRC calculations : Yes
Used interface : Native Win32 interface for Win NT & 2000
Gap handling : Appended to previous track

Used output format : User Defined Encoder
Selected bitrate : 128 kBit/s
Quality : High
Add ID3 tag : No
Command line compressor : C:\Program Files\Exact Audio Copy\Flac\flac.exe
Additional command line options : -V -8 -T “artist=%a” -T “title=%t” -T “album=%g” -T “date=%y” -T “tracknumber=%n” -T “genre=%m” %s

TOC of the extracted CD

Track | Start | Length | Start sector | End sector
———————————————————
1 | 0:00.00 | 3:41.74 | 0 | 16648
2 | 3:41.74 | 2:57.59 | 16649 | 29982
3 | 6:39.58 | 3:50.53 | 29983 | 47285
4 | 10:30.36 | 1:47.28 | 47286 | 55338
5 | 12:17.64 | 3:01.02 | 55339 | 68915
6 | 15:18.66 | 4:20.19 | 68916 | 88434
7 | 19:39.10 | 4:46.34 | 88435 | 109918
8 | 24:25.44 | 1:50.49 | 109919 | 118217
9 | 26:16.18 | 4:42.20 | 118218 | 139387
10 | 30:58.38 | 2:51.34 | 139388 | 152246
11 | 33:49.72 | 3:08.25 | 152247 | 166371
12 | 36:58.22 | 2:38.23 | 166372 | 178244

Track 1

Filename C:\FLAC Rips\Damned – Damned Damned Damned (30th Anniversary Edition – Disc 3 – Live At The 100 Club 1977-07-06)\01 – 1 Of The 2.wav

Pre-gap length 0:00:02.00

Peak level 99.7 %
Track quality 100.0 %
Test CRC C665935C
Copy CRC C665935C
Accurately ripped (confidence 5) [E714C264]
Copy OK

Track 2

Filename C:\FLAC Rips\Damned – Damned Damned Damned (30th Anniversary Edition – Disc 3 – Live At The 100 Club 1977-07-06)\02 – New Rose.wav

Peak level 99.6 %
Track quality 100.0 %
Test CRC F2658851
Copy CRC F2658851
Accurately ripped (confidence 5) [DB54C533]
Copy OK

Track 3

Filename C:\FLAC Rips\Damned – Damned Damned Damned (30th Anniversary Edition – Disc 3 – Live At The 100 Club 1977-07-06)\03 – Alone.wav

Peak level 99.6 %
Track quality 100.0 %
Test CRC 62E2B1D1
Copy CRC 62E2B1D1
Accurately ripped (confidence 5) [2A993CC1]
Copy OK

Track 4

Filename C:\FLAC Rips\Damned – Damned Damned Damned (30th Anniversary Edition – Disc 3 – Live At The 100 Club 1977-07-06)\04 – Help.wav

Peak level 99.5 %
Track quality 100.0 %
Test CRC FD15888B
Copy CRC FD15888B
Accurately ripped (confidence 5) [19528491]
Copy OK

Track 5

Filename C:\FLAC Rips\Damned – Damned Damned Damned (30th Anniversary Edition – Disc 3 – Live At The 100 Club 1977-07-06)\05 – Fan Club.wav

Peak level 99.5 %
Track quality 100.0 %
Test CRC 90AE2B63
Copy CRC 90AE2B63
Accurately ripped (confidence 5) [83BA9A11]
Copy OK

Track 6

Filename C:\FLAC Rips\Damned – Damned Damned Damned (30th Anniversary Edition – Disc 3 – Live At The 100 Club 1977-07-06)\06 – I Feel Alright.wav

Peak level 99.6 %
Track quality 100.0 %
Test CRC FA55F053
Copy CRC FA55F053
Accurately ripped (confidence 5) [80C99A3F]
Copy OK

Track 7

Filename C:\FLAC Rips\Damned – Damned Damned Damned (30th Anniversary Edition – Disc 3 – Live At The 100 Club 1977-07-06)\07 – Feel The Pain.wav

Peak level 99.9 %
Track quality 100.0 %
Test CRC 46A830D6
Copy CRC 46A830D6
Accurately ripped (confidence 5) [ECD895D1]
Copy OK

Track 8

Filename C:\FLAC Rips\Damned – Damned Damned Damned (30th Anniversary Edition – Disc 3 – Live At The 100 Club 1977-07-06)\08 – Fish.wav

Peak level 99.6 %
Track quality 100.0 %
Test CRC D00B846D
Copy CRC D00B846D
Accurately ripped (confidence 6) [D885DEC0]
Copy OK

Track 9

Filename C:\FLAC Rips\Damned – Damned Damned Damned (30th Anniversary Edition – Disc 3 – Live At The 100 Club 1977-07-06)\09 – Circles.wav

Peak level 99.7 %
Track quality 99.9 %
Test CRC EC940181
Copy CRC EC940181
Accurately ripped (confidence 5) [A3914253]
Copy OK

Track 10

Filename C:\FLAC Rips\Damned – Damned Damned Damned (30th Anniversary Edition – Disc 3 – Live At The 100 Club 1977-07-06)\10 – See Her Tonite.wav

Peak level 99.6 %
Track quality 100.0 %
Test CRC 648EC5BF
Copy CRC 648EC5BF
Accurately ripped (confidence 5) [FD3EDEC7]
Copy OK

Track 11

Filename C:\FLAC Rips\Damned – Damned Damned Damned (30th Anniversary Edition – Disc 3 – Live At The 100 Club 1977-07-06)\11 – I Fall.wav

Peak level 99.6 %
Track quality 100.0 %
Test CRC 720E1026
Copy CRC 720E1026
Accurately ripped (confidence 5) [E9C43C54]
Copy OK

Track 12

Filename C:\FLAC Rips\Damned – Damned Damned Damned (30th Anniversary Edition – Disc 3 – Live At The 100 Club 1977-07-06)\12 – So Messed Up.wav

Peak level 99.6 %
Track quality 100.0 %
Test CRC 23357B4B
Copy CRC 23357B4B
Accurately ripped (confidence 5) [3E17F649]
Copy OK

All tracks accurately ripped

No errors occurred

End of status report

REM GENRE Rock
REM DATE 1977
REM DISCID 9407590C
REM COMMENT “ExactAudioCopy v0.99pb4”
PERFORMER “Damned”
TITLE “Damned Damned Damned (30th Anniversary Edition – Disc 1 – Original Album)”
FILE “Damned – Damned Damned Damned (30th Anniversary Edition – Disc 1 – Original Album)\01 – Neat Neat Neat.wav” WAVE
TRACK 01 AUDIO
TITLE “Neat Neat Neat”
PERFORMER “Damned”
INDEX 01 00:00:00
TRACK 02 AUDIO
TITLE “Fan Club”
PERFORMER “Damned”
INDEX 00 02:41:43
FILE “Damned – Damned Damned Damned (30th Anniversary Edition – Disc 1 – Original Album)\02 – Fan Club.wav” WAVE
INDEX 01 00:00:00
TRACK 03 AUDIO
TITLE “I Fall”
PERFORMER “Damned”
INDEX 00 02:55:29
FILE “Damned – Damned Damned Damned (30th Anniversary Edition – Disc 1 – Original Album)\03 – I Fall.wav” WAVE
INDEX 01 00:00:00
TRACK 04 AUDIO
TITLE “Born To Kill”
PERFORMER “Damned”
INDEX 00 02:04:46
FILE “Damned – Damned Damned Damned (30th Anniversary Edition – Disc 1 – Original Album)\04 – Born To Kill.wav” WAVE
INDEX 01 00:00:00
TRACK 05 AUDIO
TITLE “Stab Yor Back”
PERFORMER “Damned”
INDEX 00 02:35:26
FILE “Damned – Damned Damned Damned (30th Anniversary Edition – Disc 1 – Original Album)\05 – Stab Yor Back.wav” WAVE
INDEX 01 00:00:00
TRACK 06 AUDIO
TITLE “Feel The Pain”
PERFORMER “Damned”
INDEX 00 00:58:26
FILE “Damned – Damned Damned Damned (30th Anniversary Edition – Disc 1 – Original Album)\06 – Feel The Pain.wav” WAVE
INDEX 01 00:00:00
TRACK 07 AUDIO
TITLE “New Rose”
PERFORMER “Damned”
INDEX 00 03:35:07
FILE “Damned – Damned Damned Damned (30th Anniversary Edition – Disc 1 – Original Album)\07 – New Rose.wav” WAVE
INDEX 01 00:00:00
TRACK 08 AUDIO
TITLE “Fish”
PERFORMER “Damned”
INDEX 00 02:42:18
FILE “Damned – Damned Damned Damned (30th Anniversary Edition – Disc 1 – Original Album)\08 – Fish.wav” WAVE
INDEX 01 00:00:00
TRACK 09 AUDIO
TITLE “See Her Tonite”
PERFORMER “Damned”
INDEX 00 01:37:13
FILE “Damned – Damned Damned Damned (30th Anniversary Edition – Disc 1 – Original Album)\09 – See Her Tonite.wav” WAVE
INDEX 01 00:00:00
TRACK 10 AUDIO
TITLE “1 Of The 2”
PERFORMER “Damned”
INDEX 00 02:28:04
FILE “Damned – Damned Damned Damned (30th Anniversary Edition – Disc 1 – Original Album)\10 – 1 Of The 2.wav” WAVE
INDEX 01 00:00:00
TRACK 11 AUDIO
TITLE “So Messed Up”
PERFORMER “Damned”
INDEX 00 03:06:56
FILE “Damned – Damned Damned Damned (30th Anniversary Edition – Disc 1 – Original Album)\11 – So Messed Up.wav” WAVE
INDEX 01 00:00:00
TRACK 12 AUDIO
TITLE “I Feel Alright”
PERFORMER “Damned”
INDEX 00 01:50:07
FILE “Damned – Damned Damned Damned (30th Anniversary Edition – Disc 1 – Original Album)\12 – I Feel Alright.wav” WAVE
INDEX 01 00:00:00

REM GENRE Rock
REM DATE 2007
REM DISCID 6E0FC61A
REM COMMENT “ExactAudioCopy v0.99pb4”
PERFORMER “Damned”
TITLE “Damned Damned Damned (30th Anniversary Edition – Disc 2 – Bonus Tracks)”
FILE “Damned – Damned Damned Damned (30th Anniversary Edition – Disc 2 – Bonus Tracks)\01 – I Fall (Demo June 1976).wav” WAVE
TRACK 01 AUDIO
TITLE “I Fall (Demo June 1976)”
PERFORMER “Damned”
INDEX 01 00:00:00
TRACK 02 AUDIO
TITLE “See Her Tonite (Demo June 1976)”
PERFORMER “Damned”
INDEX 00 02:55:03
FILE “Damned – Damned Damned Damned (30th Anniversary Edition – Disc 2 – Bonus Tracks)\02 – See Her Tonite (Demo June 1976).wav” WAVE
INDEX 01 00:00:00
TRACK 03 AUDIO
TITLE “Feel The Pain (Demo June 1976)”
PERFORMER “Damned”
INDEX 00 02:39:01
FILE “Damned – Damned Damned Damned (30th Anniversary Edition – Disc 2 – Bonus Tracks)\03 – Feel The Pain (Demo June 1976).wav” WAVE
INDEX 01 00:00:00
TRACK 04 AUDIO
TITLE “Help (Stiff B-Side October 1976)”
PERFORMER “Damned”
INDEX 00 05:09:69
FILE “Damned – Damned Damned Damned (30th Anniversary Edition – Disc 2 – Bonus Tracks)\04 – Help (Stiff B-Side October 1976).wav” WAVE
INDEX 01 00:00:00
TRACK 05 AUDIO
TITLE “Stab Yor Back (Peel Session 1976-11-30)”
PERFORMER “Damned”
INDEX 00 01:41:23
FILE “Damned – Damned Damned Damned (30th Anniversary Edition – Disc 2 – Bonus Tracks)\05 – Stab Yor Back (Peel Session 1976-11-30).wav” WAVE
INDEX 01 00:00:00
TRACK 06 AUDIO
TITLE “Neat Neat Neat (Peel Session 1976-11-30)”
PERFORMER “Damned”
INDEX 00 00:57:63
FILE “Damned – Damned Damned Damned (30th Anniversary Edition – Disc 2 – Bonus Tracks)\06 – Neat Neat Neat (Peel Session 1976-11-30).wav” WAVE
INDEX 01 00:00:00
TRACK 07 AUDIO
TITLE “New Rose (Peel Session 1976-11-30)”
PERFORMER “Damned”
INDEX 00 02:37:72
FILE “Damned – Damned Damned Damned (30th Anniversary Edition – Disc 2 – Bonus Tracks)\07 – New Rose (Peel Session 1976-11-30).wav” WAVE
INDEX 01 00:00:00
TRACK 08 AUDIO
TITLE “So Messed Up (Peel Session 1976-11-30)”
PERFORMER “Damned”
INDEX 00 02:39:11
FILE “Damned – Damned Damned Damned (30th Anniversary Edition – Disc 2 – Bonus Tracks)\08 – So Messed Up (Peel Session 1976-11-30).wav” WAVE
INDEX 01 00:00:00
TRACK 09 AUDIO
TITLE “I Fall (Peel Session 1976-11-30)”
PERFORMER “Damned”
INDEX 00 02:26:28
FILE “Damned – Damned Damned Damned (30th Anniversary Edition – Disc 2 – Bonus Tracks)\09 – I Fall (Peel Session 1976-11-30).wav” WAVE
INDEX 01 00:00:00
TRACK 10 AUDIO
TITLE “Singalongscabies (Stiff B-Side February 1977)”
PERFORMER “Damned”
INDEX 00 02:09:15
FILE “Damned – Damned Damned Damned (30th Anniversary Edition – Disc 2 – Bonus Tracks)\10 – Singalongscabies (Stiff B-Side February 1977).wav” WAVE
INDEX 01 00:00:00
TRACK 11 AUDIO
TITLE “Fan Club (Peel Session 1977-05-05)”
PERFORMER “Damned”
INDEX 00 00:58:71
FILE “Damned – Damned Damned Damned (30th Anniversary Edition – Disc 2 – Bonus Tracks)\11 – Fan Club (Peel Session 1977-05-05).wav” WAVE
INDEX 01 00:00:00
TRACK 12 AUDIO
TITLE “Feel The Pain (Peel Session 1977-05-05)”
PERFORMER “Damned”
INDEX 00 03:02:09
FILE “Damned – Damned Damned Damned (30th Anniversary Edition – Disc 2 – Bonus Tracks)\12 – Feel The Pain (Peel Session 1977-05-05).wav” WAVE
INDEX 01 00:00:00
TRACK 13 AUDIO
TITLE “Stretcher Case Baby (Peel Session 1977-05-05)”
PERFORMER “Damned”
INDEX 00 03:32:04
FILE “Damned – Damned Damned Damned (30th Anniversary Edition – Disc 2 – Bonus Tracks)\13 – Stretcher Case Baby (Peel Session 1977-05-05).wav” WAVE
INDEX 01 00:00:00
TRACK 14 AUDIO
TITLE “Sick Of Being Sick (Peel Session 1977-05-05)”
PERFORMER “Damned”
INDEX 00 01:46:50
FILE “Damned – Damned Damned Damned (30th Anniversary Edition – Disc 2 – Bonus Tracks)\14 – Sick Of Being Sick (Peel Session 1977-05-05).wav” WAVE
INDEX 01 00:00:00
TRACK 15 AUDIO
TITLE “I Feel Alright (In Concert 1977-05-19)”
PERFORMER “Damned”
INDEX 00 02:27:47
FILE “Damned – Damned Damned Damned (30th Anniversary Edition – Disc 2 – Bonus Tracks)\15 – I Feel Alright (In Concert 1977-05-19).wav” WAVE
INDEX 01 00:00:00
FILE “Damned – Damned Damned Damned (30th Anniversary Edition – Disc 2 – Bonus Tracks)\16 – Born To Kill (In Concert 1977-05-19).wav” WAVE
TRACK 16 AUDIO
TITLE “Born To Kill (In Concert 1977-05-19)”
PERFORMER “Damned”
INDEX 01 00:00:00
FILE “Damned – Damned Damned Damned (30th Anniversary Edition – Disc 2 – Bonus Tracks)\17 – Sick Of Being Sick (In Concert 1977-05-19).wav” WAVE
TRACK 17 AUDIO
TITLE “Sick Of Being Sick (In Concert 1977-05-19)”
PERFORMER “Damned”
INDEX 01 00:00:00
FILE “Damned – Damned Damned Damned (30th Anniversary Edition – Disc 2 – Bonus Tracks)\18 – Neat Neat Neat (In Concert 1977-05-19).wav” WAVE
TRACK 18 AUDIO
TITLE “Neat Neat Neat (In Concert 1977-05-19)”
PERFORMER “Damned”
INDEX 01 00:00:00
FILE “Damned – Damned Damned Damned (30th Anniversary Edition – Disc 2 – Bonus Tracks)\19 – Fan Club (In Concert 1977-05-19).wav” WAVE
TRACK 19 AUDIO
TITLE “Fan Club (In Concert 1977-05-19)”
PERFORMER “Damned”
INDEX 01 00:00:00
FILE “Damned – Damned Damned Damned (30th Anniversary Edition – Disc 2 – Bonus Tracks)\20 – Stretcher Case Baby (In Concert 1977-05-19).wav” WAVE
TRACK 20 AUDIO
TITLE “Stretcher Case Baby (In Concert 1977-05-19)”
PERFORMER “Damned”
INDEX 01 00:00:00
FILE “Damned – Damned Damned Damned (30th Anniversary Edition – Disc 2 – Bonus Tracks)\21 – Help (In Concert 1977-05-19).wav” WAVE
TRACK 21 AUDIO
TITLE “Help (In Concert 1977-05-19)”
PERFORMER “Damned”
INDEX 01 00:00:00
FILE “Damned – Damned Damned Damned (30th Anniversary Edition – Disc 2 – Bonus Tracks)\22 – Stab Yor Back (In Concert 1977-05-19).wav” WAVE
TRACK 22 AUDIO
TITLE “Stab Yor Back (In Concert 1977-05-19)”
PERFORMER “Damned”
INDEX 01 00:00:00
FILE “Damned – Damned Damned Damned (30th Anniversary Edition – Disc 2 – Bonus Tracks)\23 – So Messed Up (In Concert 1977-05-19).wav” WAVE
TRACK 23 AUDIO
TITLE “So Messed Up (In Concert 1977-05-19)”
PERFORMER “Damned”
INDEX 01 00:00:00
FILE “Damned – Damned Damned Damned (30th Anniversary Edition – Disc 2 – Bonus Tracks)\24 – New Rose (In Concert 1977-05-19).wav” WAVE
TRACK 24 AUDIO
TITLE “New Rose (In Concert 1977-05-19)”
PERFORMER “Damned”
INDEX 01 00:00:00
TRACK 25 AUDIO
TITLE “Stretcher Case Baby (Stiff Single July 1977)”
PERFORMER “Damned”
INDEX 00 03:24:18
FILE “Damned – Damned Damned Damned (30th Anniversary Edition – Disc 2 – Bonus Tracks)\25 – Stretcher Case Baby (Stiff Single July 1977).wav” WAVE
INDEX 01 00:00:00
TRACK 26 AUDIO
TITLE “Sick Of Being Sick (Stiff Single July 1977)”
PERFORMER “Damned”
INDEX 00 02:12:43
FILE “Damned – Damned Damned Damned (30th Anniversary Edition – Disc 2 – Bonus Tracks)\26 – Sick Of Being Sick (Stiff Single July 1977).wav” WAVE
INDEX 01 00:00:00

REM GENRE Rock
REM DATE 2007
REM DISCID 8409480C
REM COMMENT “ExactAudioCopy v0.99pb4”
PERFORMER “Damned”
TITLE “Damned Damned Damned (30th Anniversary Edition – Disc 3 – Live At The 100 Clu…”
FILE “Damned – Damned Damned Damned (30th Anniversary Edition – Disc 3 – Live At The 100 Club 1977-07-06)\01 – 1 Of The 2.wav” WAVE
TRACK 01 AUDIO
TITLE “1 Of The 2”
PERFORMER “Damned”
INDEX 01 00:00:00
FILE “Damned – Damned Damned Damned (30th Anniversary Edition – Disc 3 – Live At The 100 Club 1977-07-06)\02 – New Rose.wav” WAVE
TRACK 02 AUDIO
TITLE “New Rose”
PERFORMER “Damned”
INDEX 01 00:00:00
FILE “Damned – Damned Damned Damned (30th Anniversary Edition – Disc 3 – Live At The 100 Club 1977-07-06)\03 – Alone.wav” WAVE
TRACK 03 AUDIO
TITLE “Alone”
PERFORMER “Damned”
INDEX 01 00:00:00
FILE “Damned – Damned Damned Damned (30th Anniversary Edition – Disc 3 – Live At The 100 Club 1977-07-06)\04 – Help.wav” WAVE
TRACK 04 AUDIO
TITLE “Help”
PERFORMER “Damned”
INDEX 01 00:00:00
FILE “Damned – Damned Damned Damned (30th Anniversary Edition – Disc 3 – Live At The 100 Club 1977-07-06)\05 – Fan Club.wav” WAVE
TRACK 05 AUDIO
TITLE “Fan Club”
PERFORMER “Damned”
INDEX 01 00:00:00
FILE “Damned – Damned Damned Damned (30th Anniversary Edition – Disc 3 – Live At The 100 Club 1977-07-06)\06 – I Feel Alright.wav” WAVE
TRACK 06 AUDIO
TITLE “I Feel Alright”
PERFORMER “Damned”
INDEX 01 00:00:00
FILE “Damned – Damned Damned Damned (30th Anniversary Edition – Disc 3 – Live At The 100 Club 1977-07-06)\07 – Feel The Pain.wav” WAVE
TRACK 07 AUDIO
TITLE “Feel The Pain”
PERFORMER “Damned”
INDEX 01 00:00:00
FILE “Damned – Damned Damned Damned (30th Anniversary Edition – Disc 3 – Live At The 100 Club 1977-07-06)\08 – Fish.wav” WAVE
TRACK 08 AUDIO
TITLE “Fish”
PERFORMER “Damned”
INDEX 01 00:00:00
FILE “Damned – Damned Damned Damned (30th Anniversary Edition – Disc 3 – Live At The 100 Club 1977-07-06)\09 – Circles.wav” WAVE
TRACK 09 AUDIO
TITLE “Circles”
PERFORMER “Damned”
INDEX 01 00:00:00
FILE “Damned – Damned Damned Damned (30th Anniversary Edition – Disc 3 – Live At The 100 Club 1977-07-06)\10 – See Her Tonite.wav” WAVE
TRACK 10 AUDIO
TITLE “See Her Tonite”
PERFORMER “Damned”
INDEX 01 00:00:00
FILE “Damned – Damned Damned Damned (30th Anniversary Edition – Disc 3 – Live At The 100 Club 1977-07-06)\11 – I Fall.wav” WAVE
TRACK 11 AUDIO
TITLE “I Fall”
PERFORMER “Damned”
INDEX 01 00:00:00
FILE “Damned – Damned Damned Damned (30th Anniversary Edition – Disc 3 – Live At The 100 Club 1977-07-06)\12 – So Messed Up.wav” WAVE
TRACK 12 AUDIO
TITLE “So Messed Up”
PERFORMER “Damned”
INDEX 01 00:00:00


0

Publication author

offline 4 days

Chaos

3
Comments: 4Publics: 3565Registration: 02-02-2019
Spread the Download

Leave a Reply

Your email address will not be published. Required fields are marked *

Enter the text from the image below
 

This site uses Akismet to reduce spam. Learn how your comment data is processed.