The Damned – Anything: Expanded Edition




Artist: The Damned
Year: 2009
Genre: Rock
Notes: Discogs
Add. Notes:
Cover incl.: Yes
Encoder: FLAC
Bitrate: ~800 kBit/s (44.1 kHz/16 Bit/s)
Log & Cue incl.: Yes
Size: 768,32 MB
Password: “slam” (without ” “)


All Downloads/Hosters are compatible

Download 1
Turbobit.net
Rapidgator.net
UploadEver.com
KatFile.com
UsersDrive.com
Download 2
Turbobit.net
Rapidgator.net
UploadEver.com
KatFile.com
UsersDrive.com
Download 3
Turbobit.net
Rapidgator.net
UploadEver.com
KatFile.com
UsersDrive.com

Tracklist:

1-1. Anything. 4:48
1-2. Alone Again Or. 3:38
1-3. The Portrait. 3:51
1-4. Restless. 5:00
1-5. In Dulce Decorum. 4:49
1-6. Gigolo. 6:04
1-7. The Girl Goes Down. 4:36
1-8. Tightrope Walk. 4:23
1-9. Psychomania. 4:10
Bonus Tracks
1-10. Eloise (Extravagant Mix). 9:34
1-11. Anything (Yet Another Mix). 5:55
1-12. Gigolo (12" Remix). 4:49
1-13. In Dulce Decorum (Dub). 4:41
2-1. Eloise. 7:49
2-2. Temptation. 4:11
2-3. Beat Girl. 2:22
2-4. Anything (And Yet Another Mix). 5:06
2-5. The Year Of The Jackal. 5:52
2-6. Thanks For The Night (Rat Mix). 3:59
2-7. Anything (Instrumental Mix). 5:11
2-8. Gigolo (Edited Single Version). 4:04
2-9. Alone Again Or (Mixed Again). 6:30
2-10. Psychomania (Live). 4:00
2-11. In Dulce Decorum (Extended Mix). 5:59

EAC-Log, CUE-Sheed & NFO:

Click to open spoiler
Exact Audio Copy V1.1 from 23. June 2015

EAC extraction logfile from 22. February 2018, 19:53

The Damned / Anything

Used drive : hp DVDRW SU208FB Adapter: 1 ID: 0

Read mode : Secure
Utilize accurate stream : Yes
Defeat audio cache : Yes
Make use of C2 pointers : No

Read offset correction : 6
Overread into Lead-In and Lead-Out : No
Fill up missing offset samples with silence : Yes
Delete leading and trailing silent blocks : No
Null samples used in CRC calculations : Yes
Used interface : Native Win32 interface for Win NT & 2000
Gap handling : Appended to previous track

Used output format : User Defined Encoder
Selected bitrate : 1024 kBit/s
Quality : High
Add ID3 tag : No
Command line compressor : C:\Program Files (x86)\Exact Audio Copy\FLAC\flac.exe
Additional command line options : -8 -e -V -T “ARTIST=%artist%” -T “TITLE=%title%” -T “ALBUM=%albumtitle%” -T “DATE=%year%” -T “TRACKNUMBER=%tracknr%” -T “GENRE=%genre%” -T “PERFORMER=%albuminterpret%” -T “COMPOSER=%composer%” %haslyrics%–tag-from-file=LYRICS=”%lyricsfile%”%haslyrics% -T “ALBUMARTIST=%albumartist%” -T “DISCNUMBER=%cdnumber%” -T “TOTALDISCS=%totalcds%” -T “TOTALTRACKS=%numtracks%” -T “COMMENT=%comment%” %source% -o %dest%

TOC of the extracted CD

Track | Start | Length | Start sector | End sector
———————————————————
1 | 0:00.00 | 4:48.02 | 0 | 21601
2 | 4:48.02 | 3:38.33 | 21602 | 37984
3 | 8:26.35 | 3:50.72 | 37985 | 55306
4 | 12:17.32 | 5:00.30 | 55307 | 77836
5 | 17:17.62 | 4:49.28 | 77837 | 99539
6 | 22:07.15 | 6:04.15 | 99540 | 126854
7 | 28:11.30 | 4:36.08 | 126855 | 147562
8 | 32:47.38 | 4:23.20 | 147563 | 167307
9 | 37:10.58 | 4:10.08 | 167308 | 186065
10 | 41:20.66 | 9:34.31 | 186066 | 229146
11 | 50:55.22 | 5:55.12 | 229147 | 255783
12 | 56:50.34 | 4:48.72 | 255784 | 277455
13 | 61:39.31 | 4:41.29 | 277456 | 298559

Track 1

Filename F:\The Damned\The Damned – Anything (Expanded Edition) (1986, 2009)(Island UMC, 5316215)[CD FLAC]\CD 1\01 Anything.wav

Pre-gap length 0:00:02.00

Peak level 97.7 %
Extraction speed 2.3 X
Track quality 100.0 %
Test CRC 8363F86B
Copy CRC 8363F86B
Accurately ripped (confidence 28) [B6B21012] (AR v2)
Copy OK

Track 2

Filename F:\The Damned\The Damned – Anything (Expanded Edition) (1986, 2009)(Island UMC, 5316215)[CD FLAC]\CD 1\02 Alone Again Or.wav

Peak level 97.7 %
Extraction speed 1.9 X
Track quality 99.9 %
Test CRC 66657DE1
Copy CRC 66657DE1
Accurately ripped (confidence 29) [BDAAAFE5] (AR v2)
Copy OK

Track 3

Filename F:\The Damned\The Damned – Anything (Expanded Edition) (1986, 2009)(Island UMC, 5316215)[CD FLAC]\CD 1\03 The Portrait.wav

Peak level 56.0 %
Extraction speed 2.6 X
Track quality 100.0 %
Test CRC 4F17C11B
Copy CRC 4F17C11B
Accurately ripped (confidence 28) [CA750E01] (AR v2)
Copy OK

Track 4

Filename F:\The Damned\The Damned – Anything (Expanded Edition) (1986, 2009)(Island UMC, 5316215)[CD FLAC]\CD 1\04 Restless.wav

Peak level 97.7 %
Extraction speed 2.9 X
Track quality 100.0 %
Test CRC 8D80307D
Copy CRC 8D80307D
Accurately ripped (confidence 29) [981DEEA1] (AR v2)
Copy OK

Track 5

Filename F:\The Damned\The Damned – Anything (Expanded Edition) (1986, 2009)(Island UMC, 5316215)[CD FLAC]\CD 1\05 In Dulce Decorum.wav

Pre-gap length 0:00:02.66

Peak level 97.7 %
Extraction speed 3.2 X
Track quality 100.0 %
Test CRC D055F0DC
Copy CRC D055F0DC
Accurately ripped (confidence 28) [9E5008B5] (AR v2)
Copy OK

Track 6

Filename F:\The Damned\The Damned – Anything (Expanded Edition) (1986, 2009)(Island UMC, 5316215)[CD FLAC]\CD 1\06 Gigolo.wav

Peak level 97.7 %
Extraction speed 2.9 X
Track quality 99.9 %
Test CRC 70E8D35E
Copy CRC 70E8D35E
Accurately ripped (confidence 29) [42F2DDC1] (AR v2)
Copy OK

Track 7

Filename F:\The Damned\The Damned – Anything (Expanded Edition) (1986, 2009)(Island UMC, 5316215)[CD FLAC]\CD 1\07 The Girl Goes Down.wav

Peak level 97.7 %
Extraction speed 3.6 X
Track quality 100.0 %
Test CRC 2084179D
Copy CRC 2084179D
Accurately ripped (confidence 29) [2419B55D] (AR v2)
Copy OK

Track 8

Filename F:\The Damned\The Damned – Anything (Expanded Edition) (1986, 2009)(Island UMC, 5316215)[CD FLAC]\CD 1\08 Tightrope Walk.wav

Peak level 58.9 %
Extraction speed 2.9 X
Track quality 99.9 %
Test CRC 450E18C2
Copy CRC 450E18C2
Accurately ripped (confidence 29) [2837E54C] (AR v2)
Copy OK

Track 9

Filename F:\The Damned\The Damned – Anything (Expanded Edition) (1986, 2009)(Island UMC, 5316215)[CD FLAC]\CD 1\09 Psychomania.wav

Peak level 97.7 %
Extraction speed 3.6 X
Track quality 100.0 %
Test CRC 9AD6A6AF
Copy CRC 9AD6A6AF
Accurately ripped (confidence 29) [70CE6B6D] (AR v2)
Copy OK

Track 10

Filename F:\The Damned\The Damned – Anything (Expanded Edition) (1986, 2009)(Island UMC, 5316215)[CD FLAC]\CD 1\10 Eloise (Extravagant Mix) (Bonus Track).wav

Pre-gap length 0:00:02.76

Peak level 97.7 %
Extraction speed 4.2 X
Track quality 100.0 %
Test CRC FDF13EBA
Copy CRC FDF13EBA
Accurately ripped (confidence 29) [6E8E9889] (AR v2)
Copy OK

Track 11

Filename F:\The Damned\The Damned – Anything (Expanded Edition) (1986, 2009)(Island UMC, 5316215)[CD FLAC]\CD 1\11 Anything (Yet Another Mix) (Bonus Track).wav

Pre-gap length 0:00:03.02

Peak level 87.0 %
Extraction speed 4.4 X
Track quality 100.0 %
Test CRC 9B2F39A7
Copy CRC 9B2F39A7
Accurately ripped (confidence 28) [33295752] (AR v2)
Copy OK

Track 12

Filename F:\The Damned\The Damned – Anything (Expanded Edition) (1986, 2009)(Island UMC, 5316215)[CD FLAC]\CD 1\12 Gigolo (12” Remix) (Bonus Track).wav

Pre-gap length 0:00:02.90

Peak level 97.7 %
Extraction speed 4.4 X
Track quality 100.0 %
Test CRC 7B709A65
Copy CRC 7B709A65
Accurately ripped (confidence 29) [7F6B76D5] (AR v2)
Copy OK

Track 13

Filename F:\The Damned\The Damned – Anything (Expanded Edition) (1986, 2009)(Island UMC, 5316215)[CD FLAC]\CD 1\13 In Dulce Decorum (Dub) (Bonus Track).wav

Pre-gap length 0:00:02.98

Peak level 87.0 %
Extraction speed 4.6 X
Track quality 100.0 %
Test CRC F311362C
Copy CRC F311362C
Accurately ripped (confidence 29) [C17982BA] (AR v2)
Copy OK

All tracks accurately ripped

No errors occurred

End of status report

—- CUETools DB Plugin V2.1.6

[CTDB TOCID: DmJsavbAL3EHr_KVyy0_bGRocHA-] found
Submit result: DmJsavbAL3EHr_KVyy0_bGRocHA- has been confirmed
Track | CTDB Status
1 | (28/28) Accurately ripped
2 | (28/28) Accurately ripped
3 | (28/28) Accurately ripped
4 | (28/28) Accurately ripped
5 | (28/28) Accurately ripped
6 | (28/28) Accurately ripped
7 | (28/28) Accurately ripped
8 | (28/28) Accurately ripped
9 | (28/28) Accurately ripped
10 | (28/28) Accurately ripped
11 | (28/28) Accurately ripped
12 | (28/28) Accurately ripped
13 | (28/28) Accurately ripped

==== Log checksum 9EE04A13FBEB28B1E82B8ACC41644BD5FC328B1973638FB5180484FF4B7D26EF ====

Exact Audio Copy V1.1 from 23. June 2015

EAC extraction logfile from 22. February 2018, 20:40

The Damned / Anything

Used drive : hp DVDRW SU208FB Adapter: 1 ID: 0

Read mode : Secure
Utilize accurate stream : Yes
Defeat audio cache : Yes
Make use of C2 pointers : No

Read offset correction : 6
Overread into Lead-In and Lead-Out : No
Fill up missing offset samples with silence : Yes
Delete leading and trailing silent blocks : No
Null samples used in CRC calculations : Yes
Used interface : Native Win32 interface for Win NT & 2000
Gap handling : Appended to previous track

Used output format : User Defined Encoder
Selected bitrate : 1024 kBit/s
Quality : High
Add ID3 tag : No
Command line compressor : C:\Program Files (x86)\Exact Audio Copy\FLAC\flac.exe
Additional command line options : -8 -e -V -T “ARTIST=%artist%” -T “TITLE=%title%” -T “ALBUM=%albumtitle%” -T “DATE=%year%” -T “TRACKNUMBER=%tracknr%” -T “GENRE=%genre%” -T “PERFORMER=%albuminterpret%” -T “COMPOSER=%composer%” %haslyrics%–tag-from-file=LYRICS=”%lyricsfile%”%haslyrics% -T “ALBUMARTIST=%albumartist%” -T “DISCNUMBER=%cdnumber%” -T “TOTALDISCS=%totalcds%” -T “TOTALTRACKS=%numtracks%” -T “COMMENT=%comment%” %source% -o %dest%

TOC of the extracted CD

Track | Start | Length | Start sector | End sector
———————————————————
1 | 0:00.00 | 7:49.18 | 0 | 35192
2 | 7:49.18 | 4:10.57 | 35193 | 53999
3 | 12:00.00 | 2:22.01 | 54000 | 64650
4 | 14:22.01 | 5:05.48 | 64651 | 87573
5 | 19:27.49 | 5:51.54 | 87574 | 113952
6 | 25:19.28 | 3:58.73 | 113953 | 131875
7 | 29:18.26 | 5:11.10 | 131876 | 155210
8 | 34:29.36 | 4:04.01 | 155211 | 173511
9 | 38:33.37 | 6:29.71 | 173512 | 202757
10 | 45:03.33 | 4:00.34 | 202758 | 220791
11 | 49:03.67 | 5:59.32 | 220792 | 247748

Track 1

Filename F:\The Damned\The Damned – Anything (Expanded Edition) (1986, 2009)(Island UMC, 5316215)[CD FLAC]\CD 2\01 Eloise (Extended Version) (Bonus Track).wav

Pre-gap length 0:00:02.00

Peak level 97.7 %
Extraction speed 2.5 X
Track quality 100.0 %
Test CRC 70309CD2
Copy CRC 70309CD2
Accurately ripped (confidence 24) [0703AC77] (AR v2)
Copy OK

Track 2

Filename F:\The Damned\The Damned – Anything (Expanded Edition) (1986, 2009)(Island UMC, 5316215)[CD FLAC]\CD 2\02 Temptation (Bonus Track).wav

Pre-gap length 0:00:02.98

Peak level 97.7 %
Extraction speed 2.7 X
Track quality 100.0 %
Test CRC C316F42A
Copy CRC C316F42A
Accurately ripped (confidence 25) [58029D92] (AR v2)
Copy OK

Track 3

Filename F:\The Damned\The Damned – Anything (Expanded Edition) (1986, 2009)(Island UMC, 5316215)[CD FLAC]\CD 2\03 Beat Girl (Bonus Track).wav

Pre-gap length 0:00:02.86

Peak level 97.7 %
Extraction speed 2.6 X
Track quality 100.0 %
Test CRC F63BCC6A
Copy CRC F63BCC6A
Accurately ripped (confidence 25) [8B086AEF] (AR v2)
Copy OK

Track 4

Filename F:\The Damned\The Damned – Anything (Expanded Edition) (1986, 2009)(Island UMC, 5316215)[CD FLAC]\CD 2\04 Anything (And Yet Another Mix) (Bonus Track).wav

Pre-gap length 0:00:02.90

Peak level 97.7 %
Extraction speed 3.1 X
Track quality 100.0 %
Test CRC 76D87AD4
Copy CRC 76D87AD4
Accurately ripped (confidence 25) [A3208CD6] (AR v2)
Copy OK

Track 5

Filename F:\The Damned\The Damned – Anything (Expanded Edition) (1986, 2009)(Island UMC, 5316215)[CD FLAC]\CD 2\05 The Year Of The Jackal (Bonus Track).wav

Pre-gap length 0:00:02.86

Peak level 97.7 %
Extraction speed 3.3 X
Track quality 100.0 %
Test CRC 619A4054
Copy CRC 619A4054
Accurately ripped (confidence 25) [50FF3F83] (AR v2)
Copy OK

Track 6

Filename F:\The Damned\The Damned – Anything (Expanded Edition) (1986, 2009)(Island UMC, 5316215)[CD FLAC]\CD 2\06 Thanks For The Night (Rat Mix) (Bonus Track).wav

Pre-gap length 0:00:02.97

Peak level 97.7 %
Extraction speed 3.4 X
Track quality 100.0 %
Test CRC 3F6CAFDA
Copy CRC 3F6CAFDA
Accurately ripped (confidence 25) [B2D201A4] (AR v2)
Copy OK

Track 7

Filename F:\The Damned\The Damned – Anything (Expanded Edition) (1986, 2009)(Island UMC, 5316215)[CD FLAC]\CD 2\07 Anything (Instrumental Mix) (Bonus Track).wav

Pre-gap length 0:00:02.89

Peak level 97.7 %
Extraction speed 3.7 X
Track quality 100.0 %
Test CRC 2EC34641
Copy CRC 2EC34641
Accurately ripped (confidence 25) [091CD074] (AR v2)
Copy OK

Track 8

Filename F:\The Damned\The Damned – Anything (Expanded Edition) (1986, 2009)(Island UMC, 5316215)[CD FLAC]\CD 2\08 Gigolo (Edited Single Version) (Bonus Track).wav

Pre-gap length 0:00:02.94

Peak level 97.7 %
Extraction speed 2.9 X
Track quality 99.9 %
Test CRC 2B8B2D50
Copy CRC 2B8B2D50
Accurately ripped (confidence 25) [BF7C5CF5] (AR v2)
Copy OK

Track 9

Filename F:\The Damned\The Damned – Anything (Expanded Edition) (1986, 2009)(Island UMC, 5316215)[CD FLAC]\CD 2\09 Alone Again Or (Mixed Again) (Bonus Track).wav

Pre-gap length 0:00:02.94

Peak level 97.7 %
Extraction speed 3.9 X
Track quality 100.0 %
Test CRC F75FCFFB
Copy CRC F75FCFFB
Accurately ripped (confidence 25) [3792CAA7] (AR v2)
Copy OK

Track 10

Filename F:\The Damned\The Damned – Anything (Expanded Edition) (1986, 2009)(Island UMC, 5316215)[CD FLAC]\CD 2\10 Psychomania (Live) (Bonus Track).wav

Pre-gap length 0:00:02.92

Peak level 97.7 %
Extraction speed 4.0 X
Track quality 100.0 %
Test CRC 56A0BD9B
Copy CRC 56A0BD9B
Accurately ripped (confidence 25) [76FF8FA8] (AR v2)
Copy OK

Track 11

Filename F:\The Damned\The Damned – Anything (Expanded Edition) (1986, 2009)(Island UMC, 5316215)[CD FLAC]\CD 2\11 In Dulce Decorum (Extended Mix) (Bonus Track).wav

Pre-gap length 0:00:03.13

Peak level 97.7 %
Extraction speed 4.4 X
Track quality 100.0 %
Test CRC BE16D34A
Copy CRC BE16D34A
Accurately ripped (confidence 24) [CD9AFB18] (AR v2)
Copy OK

All tracks accurately ripped

No errors occurred

End of status report

—- CUETools DB Plugin V2.1.6

[CTDB TOCID: r3epR222TMpdRUEQfZAZK9JE6S4-] found
Submit result: r3epR222TMpdRUEQfZAZK9JE6S4- has been confirmed
Track | CTDB Status
1 | (26/26) Accurately ripped
2 | (26/26) Accurately ripped
3 | (26/26) Accurately ripped
4 | (26/26) Accurately ripped
5 | (26/26) Accurately ripped
6 | (26/26) Accurately ripped
7 | (26/26) Accurately ripped
8 | (26/26) Accurately ripped
9 | (26/26) Accurately ripped
10 | (26/26) Accurately ripped
11 | (26/26) Accurately ripped

==== Log checksum FD840D924FA263406F4D70B905FFF10F850178587845249ECAE115AD2D6D0C0E ====

REM GENRE “New Wave”
REM DATE 2009
REM DISCID B20F8C0D
REM COMMENT “ExactAudioCopy v1.1”
CATALOG 0600753162163
PERFORMER “The Damned”
TITLE “Anything”
FILE “01 Anything.wav” WAVE
TRACK 01 AUDIO
TITLE “Anything”
PERFORMER “The Damned”
ISRC USMC10300476
INDEX 01 00:00:00
FILE “02 Alone Again Or.wav” WAVE
TRACK 02 AUDIO
TITLE “Alone Again Or”
PERFORMER “The Damned”
ISRC USMC10300478
INDEX 01 00:00:00
FILE “03 The Portrait.wav” WAVE
TRACK 03 AUDIO
TITLE “The Portrait”
PERFORMER “The Damned”
ISRC USUM70817494
INDEX 01 00:00:00
FILE “04 Restless.wav” WAVE
TRACK 04 AUDIO
TITLE “Restless”
PERFORMER “The Damned”
ISRC USUM70817492
INDEX 01 00:00:00
TRACK 05 AUDIO
TITLE “In Dulce Decorum”
PERFORMER “The Damned”
ISRC USMC18622099
INDEX 00 04:57:55
FILE “05 In Dulce Decorum.wav” WAVE
INDEX 01 00:00:00
FILE “06 Gigolo.wav” WAVE
TRACK 06 AUDIO
TITLE “Gigolo”
PERFORMER “The Damned”
ISRC USUM70817491
INDEX 01 00:00:00
FILE “07 The Girl Goes Down.wav” WAVE
TRACK 07 AUDIO
TITLE “The Girl Goes Down”
PERFORMER “The Damned”
ISRC USUM70817493
INDEX 01 00:00:00
FILE “08 Tightrope Walk.wav” WAVE
TRACK 08 AUDIO
TITLE “Tightrope Walk”
PERFORMER “The Damned”
ISRC USUM70817495
INDEX 01 00:00:00
FILE “09 Psychomania.wav” WAVE
TRACK 09 AUDIO
TITLE “Psychomania”
PERFORMER “The Damned”
ISRC USMC18724699
INDEX 01 00:00:00
TRACK 10 AUDIO
TITLE “Eloise (Extravagant Mix) (Bonus Track)”
PERFORMER “The Damned”
ISRC GBUM70810590
INDEX 00 04:07:26
FILE “10 Eloise (Extravagant Mix) (Bonus Track).wav” WAVE
INDEX 01 00:00:00
TRACK 11 AUDIO
TITLE “Anything (Yet Another Mix) (Bonus Track)”
PERFORMER “The Damned”
ISRC GBUM70810587
INDEX 00 09:31:29
FILE “11 Anything (Yet Another Mix) (Bonus Track).wav” WAVE
INDEX 01 00:00:00
TRACK 12 AUDIO
TITLE “Gigolo (12′ Remix) (Bonus Track)”
PERFORMER “The Damned”
ISRC GBUM70810558
INDEX 00 05:52:19
FILE “12 Gigolo (12” Remix) (Bonus Track).wav” WAVE
INDEX 01 00:00:00
TRACK 13 AUDIO
TITLE “In Dulce Decorum (Dub) (Bonus Track)”
PERFORMER “The Damned”
ISRC GBUM70810570
INDEX 00 04:45:73
FILE “13 In Dulce Decorum (Dub) (Bonus Track).wav” WAVE
INDEX 01 00:00:00

REM GENRE Rock
REM DATE 1986
REM DISCID 8A0CE70B
REM COMMENT “ExactAudioCopy v1.1”
CATALOG 0600753162170
PERFORMER “The Damned”
TITLE “Anything”
FILE “01 Eloise (Extended Version) (Bonus Track).wav” WAVE
TRACK 01 AUDIO
TITLE “Eloise (Extended Version) (Bonus Track)”
PERFORMER “The Damned”
ISRC GBUM70817081
INDEX 01 00:00:00
TRACK 02 AUDIO
TITLE “Temptation (Bonus Track)”
PERFORMER “The Damned”
ISRC USUM70817912
INDEX 00 07:46:19
FILE “02 Temptation (Bonus Track).wav” WAVE
INDEX 01 00:00:00
TRACK 03 AUDIO
TITLE “Beat Girl (Bonus Track)”
PERFORMER “The Damned”
ISRC USUM70817910
INDEX 00 04:07:67
FILE “03 Beat Girl (Bonus Track).wav” WAVE
INDEX 01 00:00:00
TRACK 04 AUDIO
TITLE “Anything (And Yet Another Mix) (Bonus Track)”
PERFORMER “The Damned”
ISRC GBUM70817082
INDEX 00 02:19:08
FILE “04 Anything (And Yet Another Mix) (Bonus Track).wav” WAVE
INDEX 01 00:00:00
TRACK 05 AUDIO
TITLE “The Year Of The Jackal (Bonus Track)”
PERFORMER “The Damned”
ISRC USUM70817913
INDEX 00 05:02:58
FILE “05 The Year Of The Jackal (Bonus Track).wav” WAVE
INDEX 01 00:00:00
TRACK 06 AUDIO
TITLE “Thanks For The Night (Rat Mix) (Bonus Track)”
PERFORMER “The Damned”
ISRC USMC18724691
INDEX 00 05:48:56
FILE “06 Thanks For The Night (Rat Mix) (Bonus Track).wav” WAVE
INDEX 01 00:00:00
TRACK 07 AUDIO
TITLE “Anything (Instrumental Mix) (Bonus Track)”
PERFORMER “The Damned”
ISRC GBUM70810592
INDEX 00 03:56:06
FILE “07 Anything (Instrumental Mix) (Bonus Track).wav” WAVE
INDEX 01 00:00:00
TRACK 08 AUDIO
TITLE “Gigolo (Edited Single Version) (Bonus Track)”
PERFORMER “The Damned”
ISRC GBUM70810593
INDEX 00 05:08:14
FILE “08 Gigolo (Edited Single Version) (Bonus Track).wav” WAVE
INDEX 01 00:00:00
TRACK 09 AUDIO
TITLE “Alone Again Or (Mixed Again) (Bonus Track)”
PERFORMER “The Damned”
ISRC USUM70817908
INDEX 00 04:01:05
FILE “09 Alone Again Or (Mixed Again) (Bonus Track).wav” WAVE
INDEX 01 00:00:00
TRACK 10 AUDIO
TITLE “Psychomania (Live) (Bonus Track)”
PERFORMER “The Damned”
ISRC GBUM70810594
INDEX 00 06:27:02
FILE “10 Psychomania (Live) (Bonus Track).wav” WAVE
INDEX 01 00:00:00
TRACK 11 AUDIO
TITLE “In Dulce Decorum (Extended Mix) (Bonus Track)”
PERFORMER “The Damned”
ISRC USUM70817911
INDEX 00 03:57:24
FILE “11 In Dulce Decorum (Extended Mix) (Bonus Track).wav” WAVE
INDEX 01 00:00:00


Leave a Reply

Your email address will not be published. Required fields are marked *

This site uses Akismet to reduce spam. Learn how your comment data is processed.