The Cure – Wild Mood Swings




No Cover available

Artist: The Cure
Year: 1996
Genre: Alternative
Notes: Discogs
Add. Notes:
Watch Songs on: YouTube
Cover incl.: Yes
Encoder: FLAC
Bitrate: ~1000 kBit/s (44.1 kHz/16 Bit/s)
Log & Cue incl.: Yes/Yes
Size: 546,4 MB
Password: “slam” (without ” “)


All Downloads/Hosters are compatible

Download 1
KatFile.com
Turbobit.net
FileFactory.com
Rapidgator.net
Download 2
KatFile.com
Turbobit.net
FileFactory.com
Rapidgator.net

Tracklist:

1 Want 5:07
2 Club America 5:01
3 This Is A Lie 4:31
4 The 13th 4:06
5 Strange Attraction 4:19
6 Mint Car 3:32
7 Jupiter Crash 4:15
8 Round & Round & Round 2:38
9 Gone! 4:31
10 Numb 4:49
11 Return 3:28
12 Trap 3:37
13 Treasure 3:45
14 Bare 7:57

EAC-Log, CUE-Sheed & NFO:

Click to open spoiler
Exact Audio Copy V0.99 prebeta 5 from 4. May 2009

EAC extraction logfile from 26. June 2010, 16:01

The Cure / Wild Mood Swings

Used drive : PIONEER DVD-RW DVR-111D Adapter: 1 ID: 0

Read mode : Secure
Utilize accurate stream : Yes
Defeat audio cache : Yes
Make use of C2 pointers : No

Read offset correction : 48
Overread into Lead-In and Lead-Out : No
Fill up missing offset samples with silence : Yes
Delete leading and trailing silent blocks : No
Null samples used in CRC calculations : Yes
Used interface : Native Win32 interface for Win NT & 2000

Used output format : User Defined Encoder
Selected bitrate : 1024 kBit/s
Quality : High
Add ID3 tag : No
Command line compressor : C:\Program Files\Exact Audio Copy\FLAC\FLAC.EXE
Additional command line options : -8 -V %s

TOC of the extracted CD

Track | Start | Length | Start sector | End sector
———————————————————
1 | 0:00.00 | 5:07.25 | 0 | 23049
2 | 5:07.25 | 5:01.35 | 23050 | 45659
3 | 10:08.60 | 4:29.65 | 45660 | 65899
4 | 14:38.50 | 4:08.10 | 65900 | 84509
5 | 18:46.60 | 4:19.25 | 84510 | 103959
6 | 23:06.10 | 3:32.42 | 103960 | 119901
7 | 26:38.52 | 4:15.43 | 119902 | 139069
8 | 30:54.20 | 2:38.65 | 139070 | 150984
9 | 33:33.10 | 4:31.47 | 150985 | 171356
10 | 38:04.57 | 4:49.40 | 171357 | 193071
11 | 42:54.22 | 3:28.05 | 193072 | 208676
12 | 46:22.27 | 3:37.33 | 208677 | 224984
13 | 49:59.60 | 3:45.22 | 224985 | 241881
14 | 53:45.07 | 7:59.18 | 241882 | 277824

Range status and errors

Selected range

Filename C:\Music\WMS.wav

Peak level 100.0 %
Range quality 100.0 %
Test CRC CA0E8C34
Copy CRC CA0E8C34
Copy OK

No errors occurred

AccurateRip summary

Track 1 not present in database
Track 2 not present in database
Track 3 not present in database
Track 4 not present in database
Track 5 not present in database
Track 6 not present in database
Track 7 not present in database
Track 8 not present in database
Track 9 not present in database
Track 10 not present in database
Track 11 not present in database
Track 12 not present in database
Track 13 not present in database
Track 14 not present in database

None of the tracks are present in the AccurateRip database

End of status report

REM GENRE Alternative
REM DATE 1996
REM DISCID B50E780E
REM COMMENT “ExactAudioCopy v0.99pb5”
PERFORMER “The Cure”
TITLE “Wild Mood Swings”
FILE “WMS.flac” WAVE
TRACK 01 AUDIO
TITLE “Want”
PERFORMER “The Cure”
INDEX 01 00:00:00
TRACK 02 AUDIO
TITLE “Club America”
PERFORMER “The Cure”
INDEX 01 05:07:25
TRACK 03 AUDIO
TITLE “This Is A Lie”
PERFORMER “The Cure”
INDEX 01 10:08:60
TRACK 04 AUDIO
TITLE “The 13th”
PERFORMER “The Cure”
INDEX 01 14:38:50
TRACK 05 AUDIO
TITLE “Strange Attraction”
PERFORMER “The Cure”
INDEX 01 18:46:60
TRACK 06 AUDIO
TITLE “Mint Car”
PERFORMER “The Cure”
INDEX 01 23:06:10
TRACK 07 AUDIO
TITLE “Jupiter Crash”
PERFORMER “The Cure”
INDEX 01 26:38:52
TRACK 08 AUDIO
TITLE “Round & Round & Round”
PERFORMER “The Cure”
INDEX 01 30:54:20
TRACK 09 AUDIO
TITLE “Gone!”
PERFORMER “The Cure”
INDEX 01 33:33:10
TRACK 10 AUDIO
TITLE “Numb”
PERFORMER “The Cure”
INDEX 01 38:04:57
TRACK 11 AUDIO
TITLE “Return”
PERFORMER “The Cure”
INDEX 01 42:54:22
TRACK 12 AUDIO
TITLE “Trap”
PERFORMER “The Cure”
INDEX 01 46:22:27
TRACK 13 AUDIO
TITLE “Treasure”
PERFORMER “The Cure”
INDEX 01 49:59:60
TRACK 14 AUDIO
TITLE “Bare”
PERFORMER “The Cure”
INDEX 01 53:45:07


Leave a Reply

Your email address will not be published. Required fields are marked *

This site uses Akismet to reduce spam. Learn how your comment data is processed.