The Cure – The Top (Remastered Japanese Edition)




No Cover available

Artist: The Cure
Year: 1984/2008
Genre: Rock
Notes: Discogs
Add. Notes: Remastered Japanese Edition
Watch Songs on: YouTube
Cover incl.: Yes
Encoder: FLAC
Bitrate: ~900 kBit/s (44.1 kHz/16 Bit/s)
Log & Cue incl.: Yes/Yes
Size: 333,2 MB
Password: “slam” (without ” “)


All Downloads/Hosters are compatible

Download 1
KatFile.com
Turbobit.net
Rapidgator.net
FileFactory.com
Download 2
KatFile.com
Turbobit.net
Rapidgator.net
FileFactory.com

Tracklist:

1 Shake Dog Shake 4:56
2 Birdmad Girl 4:05
3 Wailing Wall 5:23
4 Give Me It 3:42
5 Dressing Up 2:51
6 The Caterpillar 3:41
7 Piggy In The Mirror 3:39
8 The Empty World 2:36
9 Bananafishbones 2:59
10 The Top 6:58

EAC-Log, CUE-Sheed & NFO:

Click to open spoiler
Exact Audio Copy V0.99 prebeta 5 from 4. May 2009

EAC extraction logfile from 15. July 2010, 0:28

The Cure / The Top (RE)

Used drive : PIONEER DVD-RW DVR-111D Adapter: 1 ID: 0

Read mode : Secure
Utilize accurate stream : Yes
Defeat audio cache : Yes
Make use of C2 pointers : No

Read offset correction : 48
Overread into Lead-In and Lead-Out : No
Fill up missing offset samples with silence : Yes
Delete leading and trailing silent blocks : No
Null samples used in CRC calculations : Yes
Used interface : Native Win32 interface for Win NT & 2000

Used output format : User Defined Encoder
Selected bitrate : 1024 kBit/s
Quality : High
Add ID3 tag : No
Command line compressor : C:\Program Files\Exact Audio Copy\FLAC\FLAC.EXE
Additional command line options : -8 -V %s

TOC of the extracted CD

Track | Start | Length | Start sector | End sector
———————————————————
1 | 0:00.00 | 4:56.29 | 0 | 22228
2 | 4:56.29 | 4:05.31 | 22229 | 40634
3 | 9:01.60 | 5:23.14 | 40635 | 64873
4 | 14:24.74 | 3:42.61 | 64874 | 81584
5 | 18:07.60 | 2:51.28 | 81585 | 94437
6 | 20:59.13 | 3:41.56 | 94438 | 111068
7 | 24:40.69 | 3:39.69 | 111069 | 127562
8 | 28:20.63 | 2:36.47 | 127563 | 139309
9 | 30:57.35 | 2:59.52 | 139310 | 152786
10 | 33:57.12 | 6:58.03 | 152787 | 184139

Range status and errors

Selected range

Filename C:\Music\Top.Japan.RE.wav

Peak level 100.0 %
Range quality 100.0 %
Test CRC F8C487CF
Copy CRC F8C487CF
Copy OK

No errors occurred

AccurateRip summary

Track 1 accurately ripped (confidence 40) [6961F2C9]
Track 2 accurately ripped (confidence 41) [F480BE42]
Track 3 accurately ripped (confidence 41) [F44FAD6C]
Track 4 accurately ripped (confidence 41) [3DB32895]
Track 5 accurately ripped (confidence 41) [3B26E4DC]
Track 6 accurately ripped (confidence 40) [FB3B455A]
Track 7 accurately ripped (confidence 40) [FD28ADDB]
Track 8 accurately ripped (confidence 40) [0DF0AF74]
Track 9 accurately ripped (confidence 38) [6C0277AF]
Track 10 accurately ripped (confidence 40) [7CEE347F]

All tracks accurately ripped

End of status report

REM GENRE Alternative
REM DATE 2006
REM DISCID 8F09970A
REM COMMENT “ExactAudioCopy v0.99pb5”
PERFORMER “The Cure”
TITLE “The Top (RE)”
FILE “Top.Japan.RE.flac” WAVE
TRACK 01 AUDIO
TITLE “Shake Dog Shake”
PERFORMER “The Cure”
INDEX 01 00:00:00
TRACK 02 AUDIO
TITLE “Birdmad Girl”
PERFORMER “The Cure”
INDEX 01 04:56:29
TRACK 03 AUDIO
TITLE “Wailing Wall”
PERFORMER “The Cure”
INDEX 01 09:01:60
TRACK 04 AUDIO
TITLE “Give Me It”
PERFORMER “The Cure”
INDEX 00 14:24:73
INDEX 01 14:24:74
TRACK 05 AUDIO
TITLE “Dressing Up”
PERFORMER “The Cure”
INDEX 00 18:07:56
INDEX 01 18:07:60
TRACK 06 AUDIO
TITLE “The Caterpillar”
PERFORMER “The Cure”
INDEX 01 20:59:13
TRACK 07 AUDIO
TITLE “Piggy in the Mirror”
PERFORMER “The Cure”
INDEX 01 24:40:69
TRACK 08 AUDIO
TITLE “The Empty World”
PERFORMER “The Cure”
INDEX 01 28:20:63
TRACK 09 AUDIO
TITLE “Bananafishbones”
PERFORMER “The Cure”
INDEX 00 30:56:55
INDEX 01 30:57:35
TRACK 10 AUDIO
TITLE “The Top”
PERFORMER “The Cure”
INDEX 01 33:57:12


0

Publication author

offline 7 hours

Chaos

3
Comments: 4Publics: 3360Registration: 02-02-2019
Spread the Download

Leave a Reply

Your email address will not be published. Required fields are marked *

Enter the text from the image below
 

This site uses Akismet to reduce spam. Learn how your comment data is processed.