The Cure – The Head On The Door (Limited Remastered Japanese Edition)




No Cover available

Artist: The Cure
Year: 1985/2008
Genre: Rock
Notes: Discogs
Add. Notes: Limited Remastered Japanese Edition
Watch Songs on: YouTube
Cover incl.: Yes
Encoder: FLAC
Bitrate: ~1000 kBit/s (44.1 kHz/16 Bit/s)
Log & Cue incl.: Yes/Yes
Size: 307 MB
Password: “slam” (without ” “)


All Downloads/Hosters are compatible

Download 1
KatFile.com
Turbobit.net
Rapidgator.net
FileFactory.com
Download 2
KatFile.com
Turbobit.net
Rapidgator.net
FileFactory.com

Tracklist:

1 Inbetween Days 2:57
2 Kyoto Song 4:16
3 The Blood 3:43
4 Six Different Ways 3:18
5 Push 4:31
6 The Baby Screams 3:44
7 Close To Me 3:23
8 A Night Like This 4:16
9 Screw 2:38
10 Sinking 4:57

EAC-Log, CUE-Sheed & NFO:

Click to open spoiler
Exact Audio Copy V0.99 prebeta 5 from 4. May 2009

EAC extraction logfile from 14. July 2010, 23:50

The Cure / The Head On The Door (RE)

Used drive : PIONEER DVD-RW DVR-111D Adapter: 1 ID: 0

Read mode : Secure
Utilize accurate stream : Yes
Defeat audio cache : Yes
Make use of C2 pointers : No

Read offset correction : 48
Overread into Lead-In and Lead-Out : No
Fill up missing offset samples with silence : Yes
Delete leading and trailing silent blocks : No
Null samples used in CRC calculations : Yes
Used interface : Native Win32 interface for Win NT & 2000

Used output format : User Defined Encoder
Selected bitrate : 1024 kBit/s
Quality : High
Add ID3 tag : No
Command line compressor : C:\Program Files\Exact Audio Copy\FLAC\FLAC.EXE
Additional command line options : -8 -V %s

TOC of the extracted CD

Track | Start | Length | Start sector | End sector
———————————————————
1 | 0:00.00 | 2:57.74 | 0 | 13348
2 | 2:57.74 | 4:16.12 | 13349 | 32560
3 | 7:14.11 | 3:43.08 | 32561 | 49293
4 | 10:57.19 | 3:18.38 | 49294 | 64181
5 | 14:15.57 | 4:31.22 | 64182 | 84528
6 | 18:47.04 | 3:44.14 | 84529 | 101342
7 | 22:31.18 | 3:23.20 | 101343 | 116587
8 | 25:54.38 | 4:16.31 | 116588 | 135818
9 | 30:10.69 | 2:38.03 | 135819 | 147671
10 | 32:48.72 | 4:57.38 | 147672 | 169984

Range status and errors

Selected range

Filename C:\Music\Head.Japan.RE.wav

Peak level 100.0 %
Range quality 100.0 %
Test CRC 79711E63
Copy CRC 79711E63
Copy OK

No errors occurred

AccurateRip summary

Track 1 accurately ripped (confidence 71) [D54CD646]
Track 2 accurately ripped (confidence 72) [7EF3F7A0]
Track 3 accurately ripped (confidence 72) [5B32DE9E]
Track 4 accurately ripped (confidence 72) [69786E67]
Track 5 accurately ripped (confidence 72) [5B5C527C]
Track 6 accurately ripped (confidence 72) [C8292987]
Track 7 accurately ripped (confidence 73) [408E94E7]
Track 8 accurately ripped (confidence 73) [2523C454]
Track 9 accurately ripped (confidence 73) [D90A493A]
Track 10 accurately ripped (confidence 73) [E6D9DB27]

All tracks accurately ripped

End of status report

REM GENRE Alternative
REM DATE 2006
REM DISCID 8F08DA0A
REM COMMENT “ExactAudioCopy v0.99pb5”
PERFORMER “The Cure”
TITLE “The Head On The Door (RE)”
FILE “Head.Japan.RE.flac” WAVE
TRACK 01 AUDIO
TITLE “In Between Days”
PERFORMER “The Cure”
INDEX 01 00:00:00
TRACK 02 AUDIO
TITLE “Kyoto Song”
PERFORMER “The Cure”
INDEX 01 02:57:74
TRACK 03 AUDIO
TITLE “The Blood”
PERFORMER “The Cure”
INDEX 01 07:14:11
TRACK 04 AUDIO
TITLE “Six Different Ways”
PERFORMER “The Cure”
INDEX 01 10:57:19
TRACK 05 AUDIO
TITLE “Push”
PERFORMER “The Cure”
INDEX 01 14:15:57
TRACK 06 AUDIO
TITLE “The Baby Screams”
PERFORMER “The Cure”
INDEX 01 18:47:04
TRACK 07 AUDIO
TITLE “Close To Me”
PERFORMER “The Cure”
INDEX 01 22:31:18
TRACK 08 AUDIO
TITLE “A Night Like This”
PERFORMER “The Cure”
INDEX 01 25:54:38
TRACK 09 AUDIO
TITLE “Screw”
PERFORMER “The Cure”
INDEX 00 30:10:62
INDEX 01 30:10:69
TRACK 10 AUDIO
TITLE “Sinking”
PERFORMER “The Cure”
INDEX 01 32:48:72


Leave a Reply

Your email address will not be published. Required fields are marked *

Enter the text from the image below
 

This site uses Akismet to reduce spam. Learn how your comment data is processed.