The Cure – Staring At The Sea · The Singles




No Cover available

Artist: The Cure
Year: 1986
Genre: Alternative
Notes: Discogs
Add. Notes:
Watch Songs on: YouTube
Cover incl.: Yes
Encoder: FLAC
Bitrate: ~800 kBit/s (44.1 kHz/16 Bit/s)
Log & Cue incl.: Yes/Yes
Size: 384 MB
Password: “slam” (without ” “)


All Downloads/Hosters are compatible

Download 1
KatFile.com
Turbobit.net
Rapidgator.net
FileFactory.com
Download 2
KatFile.com
Turbobit.net
Rapidgator.net
FileFactory.com

Tracklist:

1 Killing An Arab 2:22
2 10:15 Saturday Night 3:37
3 Boys Don't Cry 2:35
4 Jumping Someone Else's Train 2:54
5 A Forest 4:53
6 Play For Today 3:41
7 Primary 3:33
8 Other Voices 4:27
9 Charlotte Sometimes 4:13
10 The Hanging Garden 4:21
11 Let's Go To Bed 3:33
12 The Walk 3:28
13 The Lovecats 3:38
14 The Caterpillar 3:38
15 In Between Days 2:56
16 Close To Me 3:39
17 A Night Like This 4:11

EAC-Log, CUE-Sheed & NFO:

Click to open spoiler
Exact Audio Copy V0.99 prebeta 5 from 4. May 2009

EAC extraction logfile from 7. November 2010, 4:14

The Cure / Staring At The Sea – The Singles

Used drive : TSSTcorpCDDVDW TS-L633A Adapter: 0 ID: 1

Read mode : Secure
Utilize accurate stream : Yes
Defeat audio cache : Yes
Make use of C2 pointers : No

Read offset correction : 6
Overread into Lead-In and Lead-Out : No
Fill up missing offset samples with silence : Yes
Delete leading and trailing silent blocks : No
Null samples used in CRC calculations : Yes
Used interface : Native Win32 interface for Win NT & 2000

Used output format : User Defined Encoder
Selected bitrate : 1024 kBit/s
Quality : High
Add ID3 tag : No
Command line compressor : C:\Program Files\Exact Audio Copy\Flac\flac.exe
Additional command line options : -8 -V %s

TOC of the extracted CD

Track | Start | Length | Start sector | End sector
———————————————————
1 | 0:00.33 | 2:22.00 | 33 | 10682
2 | 2:22.33 | 3:38.50 | 10683 | 27082
3 | 6:01.08 | 2:34.50 | 27083 | 38682
4 | 8:35.58 | 2:56.00 | 38683 | 51882
5 | 11:31.58 | 4:55.00 | 51883 | 74007
6 | 16:26.58 | 3:39.12 | 74008 | 90444
7 | 20:05.70 | 3:36.00 | 90445 | 106644
8 | 23:41.70 | 4:28.63 | 106645 | 126807
9 | 28:10.58 | 4:13.62 | 126808 | 145844
10 | 32:24.45 | 4:22.50 | 145845 | 165544
11 | 36:47.20 | 3:33.60 | 165545 | 181579
12 | 40:21.05 | 3:29.40 | 181580 | 197294
13 | 43:50.45 | 3:39.38 | 197295 | 213757
14 | 47:30.08 | 3:40.25 | 213758 | 230282
15 | 51:10.33 | 2:56.50 | 230283 | 243532
16 | 54:07.08 | 3:40.62 | 243533 | 260094
17 | 57:47.70 | 4:10.68 | 260095 | 278912

Range status and errors

Selected range

Filename C:\music\Staring.At.The.Sea.wav

Peak level 89.0 %
Range quality 100.0 %
Test CRC 82CCED17
Copy CRC 82CCED17
Copy OK

No errors occurred

AccurateRip summary

Track 1 cannot be verified as accurate (confidence 84) [A50A5FEA], AccurateRip returned [209F94C1]
Track 2 cannot be verified as accurate (confidence 83) [BB521B14], AccurateRip returned [7B2EB4E0]
Track 3 cannot be verified as accurate (confidence 83) [AEC4AECF], AccurateRip returned [3460EA89]
Track 4 cannot be verified as accurate (confidence 84) [C060BC86], AccurateRip returned [4AD3F20B]
Track 5 cannot be verified as accurate (confidence 84) [86741164], AccurateRip returned [45EB340D]
Track 6 cannot be verified as accurate (confidence 83) [FE8ED1D0], AccurateRip returned [0B62C030]
Track 7 cannot be verified as accurate (confidence 84) [69A2AEC3], AccurateRip returned [F81A312B]
Track 8 cannot be verified as accurate (confidence 84) [464F0339], AccurateRip returned [A3A43F89]
Track 9 cannot be verified as accurate (confidence 84) [CAF0EB6C], AccurateRip returned [2BF634FE]
Track 10 cannot be verified as accurate (confidence 85) [2404A383], AccurateRip returned [FE8BE2D7]
Track 11 cannot be verified as accurate (confidence 84) [90574E9D], AccurateRip returned [2CC24162]
Track 12 cannot be verified as accurate (confidence 83) [0DD44540], AccurateRip returned [93B802D8]
Track 13 cannot be verified as accurate (confidence 84) [08FD8235], AccurateRip returned [F3A2D99F]
Track 14 cannot be verified as accurate (confidence 81) [AF7DD0AA], AccurateRip returned [6BB61039]
Track 15 cannot be verified as accurate (confidence 83) [15D53A92], AccurateRip returned [CDB36719]
Track 16 cannot be verified as accurate (confidence 83) [DCBD0A33], AccurateRip returned [1E9DF84E]
Track 17 cannot be verified as accurate (confidence 76) [F355B1A3], AccurateRip returned [9B657771]

No tracks could be verified as accurate
You may have a different pressing from the one(s) in the database

End of status report

REM GENRE Alternative
REM DATE 1986
REM DISCID F30E8611
REM COMMENT “ExactAudioCopy v0.99pb5”
PERFORMER “The Cure”
TITLE “Staring At The Sea – The Singles”
FILE “Staring.At.The.Sea.flac” WAVE
TRACK 01 AUDIO
TITLE “Killing An Arab”
PERFORMER “The Cure”
INDEX 00 00:00:00
INDEX 01 00:00:33
TRACK 02 AUDIO
TITLE “10.15 Saturday Night”
PERFORMER “The Cure”
INDEX 00 02:22:18
INDEX 01 02:22:33
TRACK 03 AUDIO
TITLE “Boys Don’t Cry”
PERFORMER “The Cure”
INDEX 01 06:01:08
TRACK 04 AUDIO
TITLE “Jumping Someone Else’s Train”
PERFORMER “The Cure”
INDEX 01 08:35:58
TRACK 05 AUDIO
TITLE “A Forest”
PERFORMER “The Cure”
INDEX 01 11:31:58
TRACK 06 AUDIO
TITLE “Play For Today”
PERFORMER “The Cure”
INDEX 00 16:26:30
INDEX 01 16:26:58
TRACK 07 AUDIO
TITLE “Primary”
PERFORMER “The Cure”
INDEX 01 20:05:70
TRACK 08 AUDIO
TITLE “Other Voices”
PERFORMER “The Cure”
INDEX 01 23:41:70
TRACK 09 AUDIO
TITLE “Charlotte Sometimes”
PERFORMER “The Cure”
INDEX 00 28:10:28
INDEX 01 28:10:58
TRACK 10 AUDIO
TITLE “The Hanging Garden”
PERFORMER “The Cure”
INDEX 00 32:24:43
INDEX 01 32:24:45
TRACK 11 AUDIO
TITLE “Let’s Go To Bed”
PERFORMER “The Cure”
INDEX 01 36:47:20
TRACK 12 AUDIO
TITLE “The Walk”
PERFORMER “The Cure”
INDEX 01 40:21:05
TRACK 13 AUDIO
TITLE “The Love Cats”
PERFORMER “The Cure”
INDEX 01 43:50:45
TRACK 14 AUDIO
TITLE “The Caterpillar”
PERFORMER “The Cure”
INDEX 01 47:30:08
TRACK 15 AUDIO
TITLE “InBetween Days”
PERFORMER “The Cure”
INDEX 00 51:09:70
INDEX 01 51:10:33
TRACK 16 AUDIO
TITLE “Close To Me”
PERFORMER “The Cure”
INDEX 01 54:07:08
TRACK 17 AUDIO
TITLE “A Night Like This”
PERFORMER “The Cure”
INDEX 00 57:47:20
INDEX 01 57:47:70


Leave a Reply

Your email address will not be published. Required fields are marked *

This site uses Akismet to reduce spam. Learn how your comment data is processed.