The Cure – Show




No Cover available

Artist: The Cure
Year: 1993
Genre: Rock
Notes: Discogs
Add. Notes:
Watch Songs on: YouTube
Cover incl.: Yes
Encoder: FLAC
Bitrate: ~900 kBit/s (44.1 kHz/16 Bit/s)
Log & Cue incl.: Yes/Yes
Size: 544,9 MB
Password: “slam” (without ” “)


All Downloads/Hosters are compatible

Download 1
KatFile.com
Turbobit.net
Rapidgator.net
FileFactory.com
Download 2
KatFile.com
Turbobit.net
Rapidgator.net
FileFactory.com

Tracklist:

1 Open 7:20
2 High 3:31
3 Pictures Of You 7:38
4 Lullaby 4:15
5 Just Like Heaven 3:34
6 A Night Like This 4:45
7 Trust 5:14
8 Doing The Unstuck 4:00
9 Friday I'm In Love 3:34
10 Inbetween Days 2:55
11 From The Edge Of The Deep Green Sea 7:54
12 Never Enough 4:45
13 Cut 5:32
14 End 8:04

EAC-Log, CUE-Sheed & NFO:

Click to open spoiler
Exact Audio Copy V0.99 prebeta 5 from 4. May 2009

EAC extraction logfile from 3. July 2010, 0:15

The Cure / Show

Used drive : PIONEER DVD-RW DVR-111D Adapter: 1 ID: 0

Read mode : Secure
Utilize accurate stream : Yes
Defeat audio cache : Yes
Make use of C2 pointers : No

Read offset correction : 48
Overread into Lead-In and Lead-Out : No
Fill up missing offset samples with silence : Yes
Delete leading and trailing silent blocks : No
Null samples used in CRC calculations : Yes
Used interface : Native Win32 interface for Win NT & 2000

Used output format : User Defined Encoder
Selected bitrate : 1024 kBit/s
Quality : High
Add ID3 tag : No
Command line compressor : C:\Program Files\Exact Audio Copy\FLAC\FLAC.EXE
Additional command line options : -8 -V %s

TOC of the extracted CD

Track | Start | Length | Start sector | End sector
———————————————————
1 | 0:00.32 | 7:20.43 | 32 | 33074
2 | 7:21.00 | 3:31.25 | 33075 | 48924
3 | 10:52.25 | 7:38.55 | 48925 | 83329
4 | 18:31.05 | 4:15.20 | 83330 | 102474
5 | 22:46.25 | 3:34.02 | 102475 | 118526
6 | 26:20.27 | 4:45.30 | 118527 | 139931
7 | 31:05.57 | 5:14.25 | 139932 | 163506
8 | 36:20.07 | 4:00.55 | 163507 | 181561
9 | 40:20.62 | 3:34.63 | 181562 | 197674
10 | 43:55.50 | 2:55.17 | 197675 | 210816
11 | 46:50.67 | 7:54.73 | 210817 | 246439
12 | 54:45.65 | 4:45.15 | 246440 | 267829
13 | 59:31.05 | 5:32.30 | 267830 | 292759
14 | 65:03.35 | 8:04.25 | 292760 | 329084

Range status and errors

Selected range

Filename C:\Music\Show.wav

Peak level 100.0 %
Range quality 100.0 %
Test CRC 13B3545F
Copy CRC 13B3545F
Copy OK

No errors occurred

AccurateRip summary

Track 1 accurately ripped (confidence 105) [8420373F]
Track 2 accurately ripped (confidence 108) [E95BCDBC]
Track 3 accurately ripped (confidence 107) [32F4CD62]
Track 4 accurately ripped (confidence 107) [381624CA]
Track 5 accurately ripped (confidence 107) [9839F781]
Track 6 accurately ripped (confidence 107) [F471BC08]
Track 7 accurately ripped (confidence 106) [79243919]
Track 8 accurately ripped (confidence 106) [3D01AA94]
Track 9 accurately ripped (confidence 105) [F280F7D5]
Track 10 accurately ripped (confidence 105) [66B60A38]
Track 11 accurately ripped (confidence 105) [2C26AEA6]
Track 12 accurately ripped (confidence 101) [8AC71F75]
Track 13 accurately ripped (confidence 101) [72FA58D2]
Track 14 accurately ripped (confidence 102) [C0E8E468]

All tracks accurately ripped

End of status report

REM GENRE Alternative
REM DATE 1993
REM DISCID C711230E
REM COMMENT “ExactAudioCopy v0.99pb5”
PERFORMER “The Cure”
TITLE “Show”
FILE “Show.flac” WAVE
TRACK 01 AUDIO
TITLE “Open”
PERFORMER “The Cure”
INDEX 00 00:00:00
INDEX 01 00:00:32
TRACK 02 AUDIO
TITLE “High”
PERFORMER “The Cure”
INDEX 00 07:20:73
INDEX 01 07:21:00
TRACK 03 AUDIO
TITLE “Pictures Of You”
PERFORMER “The Cure”
INDEX 00 10:52:23
INDEX 01 10:52:25
TRACK 04 AUDIO
TITLE “Lullaby”
PERFORMER “The Cure”
INDEX 00 18:31:03
INDEX 01 18:31:05
TRACK 05 AUDIO
TITLE “Just Like Heaven”
PERFORMER “The Cure”
INDEX 00 22:46:23
INDEX 01 22:46:25
TRACK 06 AUDIO
TITLE “A Night Like This”
PERFORMER “The Cure”
INDEX 00 26:20:25
INDEX 01 26:20:27
TRACK 07 AUDIO
TITLE “Trust”
PERFORMER “The Cure”
INDEX 00 31:05:55
INDEX 01 31:05:57
TRACK 08 AUDIO
TITLE “Doing The Unstuck”
PERFORMER “The Cure”
INDEX 00 36:20:05
INDEX 01 36:20:07
TRACK 09 AUDIO
TITLE “Friday I’m In Love”
PERFORMER “The Cure”
INDEX 00 40:20:60
INDEX 01 40:20:62
TRACK 10 AUDIO
TITLE “Inbetween Days”
PERFORMER “The Cure”
INDEX 00 43:55:48
INDEX 01 43:55:50
TRACK 11 AUDIO
TITLE “From The Edge Of The Deep Green Sea”
PERFORMER “The Cure”
INDEX 00 46:50:65
INDEX 01 46:50:67
TRACK 12 AUDIO
TITLE “Never Enough”
PERFORMER “The Cure”
INDEX 00 54:45:63
INDEX 01 54:45:65
TRACK 13 AUDIO
TITLE “Cut”
PERFORMER “The Cure”
INDEX 00 59:31:03
INDEX 01 59:31:05
TRACK 14 AUDIO
TITLE “End”
PERFORMER “The Cure”
INDEX 00 65:03:33
INDEX 01 65:03:35


Leave a Reply

Your email address will not be published. Required fields are marked *

Enter the text from the image below
 

This site uses Akismet to reduce spam. Learn how your comment data is processed.