The Cure – Show




No Cover available


Artist: The Cure
Year: 1993
Genre: Rock
Notes: Discogs
Add. Notes:
Watch Songs on: YouTube
Cover incl.: Yes
Encoder: FLAC
Bitrate: ~900 kBit/s (44.1 kHz/16 Bit/s)
Log & Cue incl.: Yes/Yes
Size: 653,1 MB
Password: “slam” (without ” “)


All Downloads/Hosters are compatible

Download 1
KatFile.com
Turbobit.net
Rapidgator.net
FileFactory.com
Download 2
KatFile.com
Turbobit.net
Rapidgator.net
FileFactory.com

Tracklist:

1-1 Tape 2:25
1-2 Open 7:19
1-3 High 3:31
1-4 Pictures Of You 7:38
1-5 Lullaby 4:25
1-6 Just Like Heaven 3:37
1-7 Fascination Street 5:01
1-8 A Night Like This 4:46
1-9 Trust 5:15

2-1 Doing The Unstuck 4:20
2-2 The Walk 3:32
2-3 Let's Go To Bed 3:41
2-4 Friday I'm In Love 3:45
2-5 Inbetween Days 3:12
2-6 From The Edge Of The Deep Green Sea 7:54
2-7 Never Enough 4:52
2-8 Cut 5:25
2-9 End 7:58

EAC-Log, CUE-Sheed & NFO:

Click to open spoiler
Exact Audio Copy V0.99 prebeta 5 from 4. May 2009

EAC extraction logfile from 3. July 2010, 0:38

The Cure / Show CD1

Used drive : PIONEER DVD-RW DVR-111D Adapter: 1 ID: 0

Read mode : Secure
Utilize accurate stream : Yes
Defeat audio cache : Yes
Make use of C2 pointers : No

Read offset correction : 48
Overread into Lead-In and Lead-Out : No
Fill up missing offset samples with silence : Yes
Delete leading and trailing silent blocks : No
Null samples used in CRC calculations : Yes
Used interface : Native Win32 interface for Win NT & 2000

Used output format : User Defined Encoder
Selected bitrate : 1024 kBit/s
Quality : High
Add ID3 tag : No
Command line compressor : C:\Program Files\Exact Audio Copy\FLAC\FLAC.EXE
Additional command line options : -8 -V %s

TOC of the extracted CD

Track | Start | Length | Start sector | End sector
———————————————————
1 | 0:00.00 | 2:25.65 | 0 | 10939
2 | 2:25.65 | 7:19.15 | 10940 | 43879
3 | 9:45.05 | 3:31.32 | 43880 | 59736
4 | 13:16.37 | 7:38.45 | 59737 | 94131
5 | 20:55.07 | 4:25.45 | 94132 | 114051
6 | 25:20.52 | 3:37.40 | 114052 | 130366
7 | 28:58.17 | 5:01.10 | 130367 | 152951
8 | 33:59.27 | 4:46.13 | 152952 | 174414
9 | 38:45.40 | 5:15.27 | 174415 | 198066

Range status and errors

Selected range

Filename C:\Music\Show.CD1.wav

Peak level 100.0 %
Range quality 99.9 %
Test CRC 6C9D8CA3
Copy CRC 6C9D8CA3
Copy OK

No errors occurred

AccurateRip summary

Track 1 cannot be verified as accurate (confidence 30) [91EAC133], AccurateRip returned [B9A7728A]
Track 2 cannot be verified as accurate (confidence 31) [9247BAB3], AccurateRip returned [A17225B1]
Track 3 cannot be verified as accurate (confidence 31) [8A8655C2], AccurateRip returned [9CD7DB3C]
Track 4 cannot be verified as accurate (confidence 31) [C712E434], AccurateRip returned [E64F99D3]
Track 5 cannot be verified as accurate (confidence 30) [6C74195D], AccurateRip returned [5C2B32BF]
Track 6 cannot be verified as accurate (confidence 30) [B11287DB], AccurateRip returned [C0C8F577]
Track 7 cannot be verified as accurate (confidence 30) [BABFF45E], AccurateRip returned [EC8D91F9]
Track 8 cannot be verified as accurate (confidence 30) [A1FF7380], AccurateRip returned [4643763D]
Track 9 cannot be verified as accurate (confidence 29) [E39BCFFE], AccurateRip returned [F2F0E9BD]

No tracks could be verified as accurate
You may have a different pressing from the one(s) in the database

End of status report

Exact Audio Copy V0.99 prebeta 5 from 4. May 2009

EAC extraction logfile from 3. July 2010, 9:22

The Cure / Show CD2

Used drive : PIONEER DVD-RW DVR-111D Adapter: 1 ID: 0

Read mode : Secure
Utilize accurate stream : Yes
Defeat audio cache : Yes
Make use of C2 pointers : No

Read offset correction : 48
Overread into Lead-In and Lead-Out : No
Fill up missing offset samples with silence : Yes
Delete leading and trailing silent blocks : No
Null samples used in CRC calculations : Yes
Used interface : Native Win32 interface for Win NT & 2000

Used output format : User Defined Encoder
Selected bitrate : 1024 kBit/s
Quality : High
Add ID3 tag : No
Command line compressor : C:\Program Files\Exact Audio Copy\FLAC\FLAC.EXE
Additional command line options : -8 -V %s

TOC of the extracted CD

Track | Start | Length | Start sector | End sector
———————————————————
1 | 0:00.00 | 4:20.35 | 0 | 19534
2 | 4:20.35 | 3:32.70 | 19535 | 35504
3 | 7:53.30 | 3:41.70 | 35505 | 52149
4 | 11:35.25 | 3:45.20 | 52150 | 69044
5 | 15:20.45 | 3:12.60 | 69045 | 83504
6 | 18:33.30 | 7:54.70 | 83505 | 119124
7 | 26:28.25 | 4:52.52 | 119125 | 141076
8 | 31:21.02 | 5:25.00 | 141077 | 165451
9 | 36:46.02 | 7:58.40 | 165452 | 201341

Range status and errors

Selected range

Filename C:\Music\Show.CD2.wav

Peak level 97.7 %
Range quality 100.0 %
Test CRC 35AEDA59
Copy CRC 35AEDA59
Copy OK

No errors occurred

AccurateRip summary

Track 1 accurately ripped (confidence 3) [022EACA7]
Track 2 accurately ripped (confidence 3) [CCF0993C]
Track 3 accurately ripped (confidence 3) [51BD2FBE]
Track 4 accurately ripped (confidence 3) [51C7495B]
Track 5 accurately ripped (confidence 3) [3B3DD411]
Track 6 accurately ripped (confidence 3) [1ED4D12C]
Track 7 accurately ripped (confidence 3) [44767B9D]
Track 8 accurately ripped (confidence 3) [A1EB265C]
Track 9 accurately ripped (confidence 4) [9762FDD3]

All tracks accurately ripped

End of status report

REM GENRE Alternative
REM DATE 1993
REM DISCID 740A5009
REM COMMENT “ExactAudioCopy v0.99pb5”
PERFORMER “The Cure”
TITLE “Show CD1”
FILE “Show.CD1.flac” WAVE
TRACK 01 AUDIO
TITLE “Tape”
PERFORMER “The Cure”
INDEX 01 00:00:00
TRACK 02 AUDIO
TITLE “Open”
PERFORMER “The Cure”
INDEX 01 02:25:65
TRACK 03 AUDIO
TITLE “High”
PERFORMER “The Cure”
INDEX 01 09:45:05
TRACK 04 AUDIO
TITLE “Pictures Of You”
PERFORMER “The Cure”
INDEX 01 13:16:37
TRACK 05 AUDIO
TITLE “Lullaby”
PERFORMER “The Cure”
INDEX 01 20:55:07
TRACK 06 AUDIO
TITLE “Just Like Heaven”
PERFORMER “The Cure”
INDEX 01 25:20:52
TRACK 07 AUDIO
TITLE “Fascination Street”
PERFORMER “The Cure”
INDEX 01 28:58:17
TRACK 08 AUDIO
TITLE “A Night Like This”
PERFORMER “The Cure”
INDEX 01 33:59:27
TRACK 09 AUDIO
TITLE “Trust”
PERFORMER “The Cure”
INDEX 01 38:45:40

REM GENRE Alternative
REM DATE 1993
REM DISCID 760A7C09
REM COMMENT “ExactAudioCopy v0.99pb5”
PERFORMER “The Cure”
TITLE “Show CD2”
FILE “Show.CD2.flac” WAVE
TRACK 01 AUDIO
TITLE “Doing The Unstuck”
PERFORMER “The Cure”
INDEX 01 00:00:00
TRACK 02 AUDIO
TITLE “The Walk”
PERFORMER “The Cure”
INDEX 01 04:20:35
TRACK 03 AUDIO
TITLE “Lets Go To Bed”
PERFORMER “The Cure”
INDEX 01 07:53:30
TRACK 04 AUDIO
TITLE “Friday I’m In Love”
PERFORMER “The Cure”
INDEX 01 11:35:25
TRACK 05 AUDIO
TITLE “Inbetween Days”
PERFORMER “The Cure”
INDEX 01 15:20:45
TRACK 06 AUDIO
TITLE “From The Edge Of The Deep Green Sea”
PERFORMER “The Cure”
INDEX 01 18:33:30
TRACK 07 AUDIO
TITLE “Never Enough”
PERFORMER “The Cure”
INDEX 01 26:28:25
TRACK 08 AUDIO
TITLE “Cut”
PERFORMER “The Cure”
INDEX 01 31:21:02
TRACK 09 AUDIO
TITLE “End”
PERFORMER “The Cure”
INDEX 01 36:46:02


0

Publication author

offline 4 days

Chaos

3
Comments: 4Publics: 3565Registration: 02-02-2019
Spread the Download

Leave a Reply

Your email address will not be published. Required fields are marked *

Enter the text from the image below
 

This site uses Akismet to reduce spam. Learn how your comment data is processed.