The Cure – Pornography (Remastered Deluxe Edition)




No Cover available

Artist: The Cure
Year: 1982/2005
Genre: Rock
Notes: Discogs
Add. Notes: Remastered Deluxe Edition
Watch Songs on: YouTube
Cover incl.: Yes
Encoder: FLAC
Bitrate: ~900 kBit/s (44.1 kHz/16 Bit/s)
Log & Cue incl.: Yes/Yes
Size: 929,5 MB
Password: “slam” (without ” “)


All Downloads/Hosters are compatible

Download 1
KatFile.com
Turbobit.net
Rapidgator.net
FileFactory.com
Download 2
KatFile.com
Turbobit.net
Rapidgator.net
FileFactory.com

Tracklist:

The Original Album
1-1. One Hundred Years 6:41
1-2. A Short Term Effect 4:22
1-3. The Hanging Garden 4:34
1-4. Siamese Twins 5:28
1-5. The Figurehead 6:15
1-6. A Strange Day 5:03
1-7. Cold 4:26
1-8. Pornography 6:27

Rarities 1981 - 1982
2-1. Break (Group Home Demo) 2:11
2-2. Demise (Studio Demo) 2:09
2-3. Temptation (Studio Demo) 4:00
2-4. The Figurehead (Studio Demo) 6:12
2-5. The Hanging Garden (Studio Demo) 5:29
2-6. One Hundred Years (Studio Demo) 7:00
2-7. Airlock: The Soundtrack 13:07
2-8. Cold (Live) 3:54
2-9. A Strange Day (Live) 4:05
2-10. Pornography (Live) 5:55
2-11. All Mine (Live) 2:54
2-12. A Short Term Effect (Live) 4:05
2-13. Siamese Twins (Live) 6:03
2-14. Temptation Two (AKA LGTB) (RS Studio Demo) 3:57

EAC-Log, CUE-Sheed & NFO:

Click to open spoiler
Exact Audio Copy V0.99 prebeta 5 from 4. May 2009

EAC extraction logfile from 9. July 2010, 20:28

The Cure / Pornography (Deluxe Edition) (Disc 1)

Used drive : PIONEER DVD-RW DVR-111D Adapter: 1 ID: 0

Read mode : Secure
Utilize accurate stream : Yes
Defeat audio cache : Yes
Make use of C2 pointers : No

Read offset correction : 48
Overread into Lead-In and Lead-Out : No
Fill up missing offset samples with silence : Yes
Delete leading and trailing silent blocks : No
Null samples used in CRC calculations : Yes
Used interface : Native Win32 interface for Win NT & 2000

Used output format : User Defined Encoder
Selected bitrate : 1024 kBit/s
Quality : High
Add ID3 tag : No
Command line compressor : C:\Program Files\Exact Audio Copy\FLAC\FLAC.EXE
Additional command line options : -8 -V %s

TOC of the extracted CD

Track | Start | Length | Start sector | End sector
———————————————————
1 | 0:00.00 | 6:41.00 | 0 | 30074
2 | 6:41.00 | 4:22.37 | 30075 | 49761
3 | 11:03.37 | 4:34.18 | 49762 | 70329
4 | 15:37.55 | 5:28.27 | 70330 | 94956
5 | 21:06.07 | 6:15.13 | 94957 | 123094
6 | 27:21.20 | 5:03.72 | 123095 | 145891
7 | 32:25.17 | 4:26.43 | 145892 | 165884
8 | 36:51.60 | 6:27.65 | 165885 | 194974

Range status and errors

Selected range

Filename C:\Music\Pornography.Deluxe.CD1.wav

Peak level 98.6 %
Range quality 100.0 %
Test CRC 1B959DEA
Copy CRC 1B959DEA
Copy OK

No errors occurred

AccurateRip summary

Track 1 accurately ripped (confidence 105) [4AD4D992]
Track 2 accurately ripped (confidence 106) [62AEFD45]
Track 3 accurately ripped (confidence 106) [05E0C53A]
Track 4 accurately ripped (confidence 106) [E7DA51E9]
Track 5 accurately ripped (confidence 106) [2173FD72]
Track 6 accurately ripped (confidence 105) [E5E01A3B]
Track 7 accurately ripped (confidence 105) [39FFDF1B]
Track 8 accurately ripped (confidence 107) [8E7AC632]

All tracks accurately ripped

End of status report

Exact Audio Copy V0.99 prebeta 5 from 4. May 2009

EAC extraction logfile from 9. July 2010, 22:06

The Cure / Pornography (Deluxe Edition) (Disc 2)

Used drive : PIONEER DVD-RW DVR-111D Adapter: 1 ID: 0

Read mode : Secure
Utilize accurate stream : Yes
Defeat audio cache : Yes
Make use of C2 pointers : No

Read offset correction : 48
Overread into Lead-In and Lead-Out : No
Fill up missing offset samples with silence : Yes
Delete leading and trailing silent blocks : No
Null samples used in CRC calculations : Yes
Used interface : Native Win32 interface for Win NT & 2000

Used output format : User Defined Encoder
Selected bitrate : 1024 kBit/s
Quality : High
Add ID3 tag : No
Command line compressor : C:\Program Files\Exact Audio Copy\FLAC\FLAC.EXE
Additional command line options : -8 -V %s

TOC of the extracted CD

Track | Start | Length | Start sector | End sector
———————————————————
1 | 0:00.00 | 2:11.07 | 0 | 9831
2 | 2:11.07 | 2:09.35 | 9832 | 19541
3 | 4:20.42 | 4:00.55 | 19542 | 37596
4 | 8:21.22 | 6:12.28 | 37597 | 65524
5 | 14:33.50 | 5:29.32 | 65525 | 90231
6 | 20:03.07 | 7:00.70 | 90232 | 121801
7 | 27:04.02 | 13:07.10 | 121802 | 180836
8 | 40:11.12 | 3:54.35 | 180837 | 198421
9 | 44:05.47 | 4:05.13 | 198422 | 216809
10 | 48:10.60 | 5:55.60 | 216810 | 243494
11 | 54:06.45 | 2:54.67 | 243495 | 256611
12 | 57:01.37 | 4:05.63 | 256612 | 275049
13 | 61:07.25 | 6:03.15 | 275050 | 302289
14 | 67:10.40 | 3:57.57 | 302290 | 320121

Range status and errors

Selected range

Filename C:\Music\Pornography.Deluxe.CD2.wav

Peak level 98.7 %
Range quality 100.0 %
Test CRC 4DD08ACD
Copy CRC 4DD08ACD
Copy OK

No errors occurred

AccurateRip summary

Track 1 accurately ripped (confidence 54) [FECBD14F]
Track 2 accurately ripped (confidence 53) [38ED1456]
Track 3 accurately ripped (confidence 54) [D885E8B8]
Track 4 accurately ripped (confidence 53) [AACA945B]
Track 5 accurately ripped (confidence 54) [F87D6D4F]
Track 6 accurately ripped (confidence 53) [EF42A26A]
Track 7 accurately ripped (confidence 55) [8D1500BA]
Track 8 accurately ripped (confidence 53) [FCBC4ED0]
Track 9 accurately ripped (confidence 54) [93D4DC29]
Track 10 accurately ripped (confidence 53) [D88B74AA]
Track 11 accurately ripped (confidence 53) [44A29B42]
Track 12 accurately ripped (confidence 53) [FF61BA7D]
Track 13 accurately ripped (confidence 54) [A2999851]
Track 14 accurately ripped (confidence 53) [BBBE5061]

All tracks accurately ripped

End of status report

REM GENRE Alternative
REM DATE 2005
REM DISCID 6B0A2708
REM COMMENT “ExactAudioCopy v0.99pb5”
PERFORMER “The Cure”
TITLE “Pornography (Deluxe Edition) (Disc 1)”
FILE “Pornography.Deluxe.CD1.flac” WAVE
TRACK 01 AUDIO
TITLE “One Hundred Years”
PERFORMER “The Cure”
INDEX 01 00:00:00
TRACK 02 AUDIO
TITLE “A Short Term Effect”
PERFORMER “The Cure”
INDEX 01 06:41:00
TRACK 03 AUDIO
TITLE “The Hanging Garden”
PERFORMER “The Cure”
INDEX 01 11:03:37
TRACK 04 AUDIO
TITLE “Siamese Twins”
PERFORMER “The Cure”
INDEX 01 15:37:55
TRACK 05 AUDIO
TITLE “The Figurehead”
PERFORMER “The Cure”
INDEX 00 21:05:25
INDEX 01 21:06:07
TRACK 06 AUDIO
TITLE “A Strange Day”
PERFORMER “The Cure”
INDEX 01 27:21:20
TRACK 07 AUDIO
TITLE “Cold”
PERFORMER “The Cure”
INDEX 01 32:25:17
TRACK 08 AUDIO
TITLE “Pornography”
PERFORMER “The Cure”
INDEX 00 36:50:65
INDEX 01 36:51:60

REM GENRE Alternative
REM DATE 2005
REM DISCID B610AC0E
REM COMMENT “ExactAudioCopy v0.99pb5”
PERFORMER “The Cure”
TITLE “Pornography (Deluxe Edition) (Disc 2)”
FILE “Pornography.Deluxe.CD2.flac” WAVE
TRACK 01 AUDIO
TITLE “Break (Group Home Demo – Instrumental – 11.81 – Previously Unissued Song)”
PERFORMER “The Cure”
INDEX 01 00:00:00
TRACK 02 AUDIO
TITLE “Demise (Group Studio Demo – Instrumental – 12.81 – Previously Unissued Song)”
PERFORMER “The Cure”
INDEX 00 02:09:42
INDEX 01 02:11:07
TRACK 03 AUDIO
TITLE “Temptation (Group Studio Demo – Instrumental – 12.81 – Previously Unissued Song)”
PERFORMER “The Cure”
INDEX 00 04:18:73
INDEX 01 04:20:42
TRACK 04 AUDIO
TITLE “The Figurehead (Group Studio Demo 12.81 – Previously Unissued Version)”
PERFORMER “The Cure”
INDEX 00 08:19:58
INDEX 01 08:21:22
TRACK 05 AUDIO
TITLE “The Hanging Garden (Group Studio Demo 12.81 – Previously Unissued Version)”
PERFORMER “The Cure”
INDEX 00 14:32:07
INDEX 01 14:33:50
TRACK 06 AUDIO
TITLE “One Hundred Years (Group Studio Demo 12.81 – Previously Unissued Version)”
PERFORMER “The Cure”
INDEX 00 20:01:42
INDEX 01 20:03:07
TRACK 07 AUDIO
TITLE “Airlock: The Soundtrack (Previously Unreleased from 3.82)”
PERFORMER “The Cure”
INDEX 00 27:02:35
INDEX 01 27:04:02
TRACK 08 AUDIO
TITLE “Cold (Live at the Hammersmith Odeon 5.82 – Previously Unissued Version)”
PERFORMER “The Cure”
INDEX 00 40:09:45
INDEX 01 40:11:12
TRACK 09 AUDIO
TITLE “A Strange Day (Live at the Hammersmith Odeon 5.82 – Previously Unissued Version)”
PERFORMER “The Cure”
INDEX 00 44:04:02
INDEX 01 44:05:47
TRACK 10 AUDIO
TITLE “Pornography (Live at the Hammersmith Odeon 5.82 – Previously Unissued Version)”
PERFORMER “The Cure”
INDEX 00 48:09:16
INDEX 01 48:10:60
TRACK 11 AUDIO
TITLE “All Mine (Live at the Hammersmith Odeon 5.82 – Previously on ‘Curiosity’ cass…”
PERFORMER “The Cure”
INDEX 00 54:05:02
INDEX 01 54:06:45
TRACK 12 AUDIO
TITLE “A Short Term Effect (Live in Brussels 6.82 – Previously Unissued Version)”
PERFORMER “The Cure”
INDEX 00 56:59:70
INDEX 01 57:01:37
TRACK 13 AUDIO
TITLE “Siamese Twins (Live in Brussels 6.82 – Previously Unissued Version)”
PERFORMER “The Cure”
INDEX 00 61:05:65
INDEX 01 61:07:25
TRACK 14 AUDIO
TITLE “Temptation Two (aka ”Lets Go To Bed”) – (RS Studio Demo 7.82)”
PERFORMER “The Cure”
INDEX 00 67:09:02
INDEX 01 67:10:40


0

Publication author

offline 7 days

Chaos

3
Comments: 4Publics: 3565Registration: 02-02-2019
Spread the Download

Leave a Reply

Your email address will not be published. Required fields are marked *

Enter the text from the image below
 

This site uses Akismet to reduce spam. Learn how your comment data is processed.