The Cure – Paris




No Cover available

Artist: The Cure
Year: 1993
Genre: Rock
Notes: Discogs
Add. Notes:
Watch Songs on: YouTube
Cover incl.: Yes
Encoder: FLAC
Bitrate: ~900 kBit/s (44.1 kHz/16 Bit/s)
Log & Cue incl.: Yes/Yes
Size: 389,8 MB
Password: “slam” (without ” “)


All Downloads/Hosters are compatible

Download 1
KatFile.com
Turbobit.net
Rapidgator.net
FileFactory.com
Download 2
KatFile.com
Turbobit.net
Rapidgator.net
FileFactory.com

Tracklist:

1 The Figurehead 7:26
2 One Hundred Years 7:15
3 At Night 6:39
4 Play For Today 3:50
5 Apart 6:37
6 In Your House 3:59
7 Lovesong 3:31
8 Catch 2:41
9 A Letter To Elise 4:50
10 Dressing Up 2:49
11 Charlotte Sometimes 3:58
12 Close To Me 3:57

EAC-Log, CUE-Sheed & NFO:

Click to open spoiler
Exact Audio Copy V0.99 prebeta 5 from 4. May 2009

EAC extraction logfile from 5. July 2010, 23:36

The Cure / Paris

Used drive : PIONEER DVD-RW DVR-111D Adapter: 1 ID: 0

Read mode : Secure
Utilize accurate stream : Yes
Defeat audio cache : Yes
Make use of C2 pointers : No

Read offset correction : 48
Overread into Lead-In and Lead-Out : No
Fill up missing offset samples with silence : Yes
Delete leading and trailing silent blocks : No
Null samples used in CRC calculations : Yes
Used interface : Native Win32 interface for Win NT & 2000

Used output format : User Defined Encoder
Selected bitrate : 1024 kBit/s
Quality : High
Add ID3 tag : No
Command line compressor : C:\Program Files\Exact Audio Copy\FLAC\FLAC.EXE
Additional command line options : -8 -V %s

TOC of the extracted CD

Track | Start | Length | Start sector | End sector
———————————————————
1 | 0:00.32 | 7:26.70 | 32 | 33551
2 | 7:27.27 | 7:15.65 | 33552 | 66241
3 | 14:43.17 | 6:39.35 | 66242 | 96201
4 | 21:22.52 | 3:50.30 | 96202 | 113481
5 | 25:13.07 | 6:37.28 | 113482 | 143284
6 | 31:50.35 | 3:59.07 | 143285 | 161216
7 | 35:49.42 | 3:31.70 | 161217 | 177111
8 | 39:21.37 | 2:41.30 | 177112 | 189216
9 | 42:02.67 | 4:50.55 | 189217 | 211021
10 | 46:53.47 | 2:49.25 | 211022 | 223721
11 | 49:42.72 | 3:58.10 | 223722 | 241581
12 | 53:41.07 | 3:57.25 | 241582 | 259381

Range status and errors

Selected range

Filename C:\Music\Paris.wav

Peak level 91.2 %
Range quality 100.0 %
Test CRC 5E2E653C
Copy CRC 5E2E653C
Copy OK

No errors occurred

AccurateRip summary

Track 1 accurately ripped (confidence 34) [261FAE27]
Track 2 accurately ripped (confidence 33) [E2C636D4]
Track 3 accurately ripped (confidence 34) [DF1DD713]
Track 4 accurately ripped (confidence 34) [86328E57]
Track 5 accurately ripped (confidence 34) [31FEDFA7]
Track 6 accurately ripped (confidence 34) [8077566E]
Track 7 accurately ripped (confidence 34) [7D3CE2DB]
Track 8 accurately ripped (confidence 34) [F1A80AE8]
Track 9 accurately ripped (confidence 34) [C2BA02A9]
Track 10 accurately ripped (confidence 34) [3D798ABC]
Track 11 accurately ripped (confidence 34) [0BC16A8A]
Track 12 accurately ripped (confidence 34) [31499AF3]

All tracks accurately ripped

End of status report

REM GENRE Alternative
REM DATE 1993
REM DISCID A50D820C
REM COMMENT “ExactAudioCopy v0.99pb5”
PERFORMER “The Cure”
TITLE “Paris”
FILE “Paris.flac” WAVE
TRACK 01 AUDIO
TITLE “The Figurehead”
PERFORMER “The Cure”
INDEX 00 00:00:00
INDEX 01 00:00:32
TRACK 02 AUDIO
TITLE “One Hundred Years”
PERFORMER “The Cure”
INDEX 00 07:27:25
INDEX 01 07:27:27
TRACK 03 AUDIO
TITLE “At Night”
PERFORMER “The Cure”
INDEX 00 14:43:15
INDEX 01 14:43:17
TRACK 04 AUDIO
TITLE “Play For Today”
PERFORMER “The Cure”
INDEX 00 21:22:50
INDEX 01 21:22:52
TRACK 05 AUDIO
TITLE “Apart”
PERFORMER “The Cure”
INDEX 00 25:13:05
INDEX 01 25:13:07
TRACK 06 AUDIO
TITLE “In Your House”
PERFORMER “The Cure”
INDEX 00 31:50:32
INDEX 01 31:50:35
TRACK 07 AUDIO
TITLE “Lovesong”
PERFORMER “The Cure”
INDEX 00 35:49:40
INDEX 01 35:49:42
TRACK 08 AUDIO
TITLE “Catch”
PERFORMER “The Cure”
INDEX 00 39:21:35
INDEX 01 39:21:37
TRACK 09 AUDIO
TITLE “A Letter to Elise”
PERFORMER “The Cure”
INDEX 00 42:02:65
INDEX 01 42:02:67
TRACK 10 AUDIO
TITLE “Dressing Up”
PERFORMER “The Cure”
INDEX 00 46:53:45
INDEX 01 46:53:47
TRACK 11 AUDIO
TITLE “Charlotte Sometimes”
PERFORMER “The Cure”
INDEX 00 49:42:70
INDEX 01 49:42:72
TRACK 12 AUDIO
TITLE “Close To Me”
PERFORMER “The Cure”
INDEX 00 53:41:05
INDEX 01 53:41:07


Leave a Reply

Your email address will not be published. Required fields are marked *

Enter the text from the image below
 

This site uses Akismet to reduce spam. Learn how your comment data is processed.