The Cure – Mixed Up




No Cover available

Artist: The Cure
Year: 1990
Genre: Rock
Notes: Discogs
Add. Notes:
Watch Songs on: YouTube
Cover incl.: Yes
Encoder: FLAC
Bitrate: ~800 kBit/s (44.1 kHz/16 Bit/s)
Log & Cue incl.: Yes/Yes
Size: 483,8 MB
Password: “slam” (without ” “)


All Downloads/Hosters are compatible

Download 1
KatFile.com
Turbobit.net
Rapidgator.net
FileFactory.com
Download 2
KatFile.com
Turbobit.net
Rapidgator.net
FileFactory.com

Tracklist:

1 Lullaby (Extended Mix) 7:43
2 Close To Me (Closer Mix) 5:44
3 Fascination Street (Extended Mix) 8:46
4 The Walk (Everything Mix) 5:27
5 Lovesong (Extended Mix) 6:19
6 A Forest (Tree Mix) 6:54
7 Pictures Of You (Extended Dub Mix) 6:41
8 Hot Hot Hot!!! (Extended Mix) 7:01
9 The Caterpillar (Flicker Mix) 5:38
10 Inbetween Days (Shiver Mix) 6:22
11 Never Enough (Big Mix) 6:07

EAC-Log, CUE-Sheed & NFO:

Click to open spoiler
Exact Audio Copy V0.99 prebeta 5 from 4. May 2009

EAC extraction logfile from 6. July 2010, 22:42

The Cure / Mixed Up

Used drive : PIONEER DVD-RW DVR-111D Adapter: 1 ID: 0

Read mode : Secure
Utilize accurate stream : Yes
Defeat audio cache : Yes
Make use of C2 pointers : No

Read offset correction : 48
Overread into Lead-In and Lead-Out : No
Fill up missing offset samples with silence : Yes
Delete leading and trailing silent blocks : No
Null samples used in CRC calculations : Yes
Used interface : Native Win32 interface for Win NT & 2000

Used output format : User Defined Encoder
Selected bitrate : 1024 kBit/s
Quality : High
Add ID3 tag : No
Command line compressor : C:\Program Files\Exact Audio Copy\FLAC\FLAC.EXE
Additional command line options : -8 -V %s

TOC of the extracted CD

Track | Start | Length | Start sector | End sector
———————————————————
1 | 0:00.32 | 7:45.10 | 32 | 34916
2 | 7:45.42 | 5:46.23 | 34917 | 60889
3 | 13:31.65 | 8:48.37 | 60890 | 100526
4 | 22:20.27 | 5:27.63 | 100527 | 125114
5 | 27:48.15 | 6:20.45 | 125115 | 153659
6 | 34:08.60 | 6:55.50 | 153660 | 184834
7 | 41:04.35 | 6:42.72 | 184835 | 215056
8 | 47:47.32 | 7:03.03 | 215057 | 246784
9 | 54:50.35 | 5:41.42 | 246785 | 272401
10 | 60:32.02 | 6:24.33 | 272402 | 301234
11 | 66:56.35 | 6:07.50 | 301235 | 328809

Range status and errors

Selected range

Filename C:\Music\Mixed.Up.wav

Peak level 100.0 %
Range quality 100.0 %
Test CRC C7CE9C00
Copy CRC C7CE9C00
Copy OK

No errors occurred

AccurateRip summary

Track 1 accurately ripped (confidence 22) [1A5395B6]
Track 2 accurately ripped (confidence 22) [4C2274BE]
Track 3 accurately ripped (confidence 22) [D73EAF01]
Track 4 accurately ripped (confidence 22) [1BB264CA]
Track 5 accurately ripped (confidence 21) [3F7321D1]
Track 6 accurately ripped (confidence 21) [E5045B86]
Track 7 accurately ripped (confidence 21) [816C7809]
Track 8 accurately ripped (confidence 21) [43A905AD]
Track 9 accurately ripped (confidence 21) [74F04453]
Track 10 accurately ripped (confidence 21) [05F70965]
Track 11 accurately ripped (confidence 20) [3AC4D3D0]

All tracks accurately ripped

End of status report

REM GENRE Alternative
REM DATE 1990
REM DISCID 9611200B
REM COMMENT “ExactAudioCopy v0.99pb5”
PERFORMER “The Cure”
TITLE “Mixed Up”
FILE “Mixed.Up.flac” WAVE
TRACK 01 AUDIO
TITLE “Lullaby (Extended Mix)”
PERFORMER “The Cure”
INDEX 00 00:00:00
INDEX 01 00:00:32
TRACK 02 AUDIO
TITLE “Close To Me (Closer Mix)”
PERFORMER “The Cure”
INDEX 00 07:43:47
INDEX 01 07:45:42
TRACK 03 AUDIO
TITLE “Fascination Street (Extended Mix)”
PERFORMER “The Cure”
INDEX 00 13:29:60
INDEX 01 13:31:65
TRACK 04 AUDIO
TITLE “The Walk (Everything Mix)”
PERFORMER “The Cure”
INDEX 00 22:18:62
INDEX 01 22:20:27
TRACK 05 AUDIO
TITLE “Lovesong (Extended Mix)”
PERFORMER “The Cure”
INDEX 00 27:47:37
INDEX 01 27:48:15
TRACK 06 AUDIO
TITLE “A Forest (Tree Mix)”
PERFORMER “The Cure”
INDEX 00 34:07:18
INDEX 01 34:08:60
TRACK 07 AUDIO
TITLE “Pictures Of You (Extended Dub Mix)”
PERFORMER “The Cure”
INDEX 00 41:03:42
INDEX 01 41:04:35
TRACK 08 AUDIO
TITLE “Hot Hot Hot!!! (Extended Mix)”
PERFORMER “The Cure”
INDEX 00 47:45:42
INDEX 01 47:47:32
TRACK 09 AUDIO
TITLE “The Caterpillar (Flicker Mix)”
PERFORMER “The Cure”
INDEX 00 54:48:60
INDEX 01 54:50:35
TRACK 10 AUDIO
TITLE “Inbetween Days (Shiver Mix)”
PERFORMER “The Cure”
INDEX 00 60:30:12
INDEX 01 60:32:02
TRACK 11 AUDIO
TITLE “Never Enough (Big Mix)”
PERFORMER “The Cure”
INDEX 00 66:54:15
INDEX 01 66:56:35


Leave a Reply

Your email address will not be published. Required fields are marked *

Enter the text from the image below
 

This site uses Akismet to reduce spam. Learn how your comment data is processed.