The Cure – Kiss Me, Kiss Me, Kiss Me




No Cover available

Artist: The Cure
Year: 1987
Genre: Rock
Notes: Discogs
Add. Notes:
Watch Songs on: YouTube
Cover incl.: Yes
Encoder: FLAC
Bitrate: ~900 kBit/s (44.1 kHz/16 Bit/s)
Log & Cue incl.: Yes/Yes
Size: 493,4 MB
Password: “slam” (without ” “)


All Downloads/Hosters are compatible

Download 1
KatFile.com
Turbobit.net
Rapidgator.net
FileFactory.com
Download 2
KatFile.com
Turbobit.net
Rapidgator.net
FileFactory.com

Tracklist:

1 The Kiss 6:17
2 Catch 2:42
3 Torture 4:13
4 If Only Tonight We Could Sleep 4:50
5 Why Can't I Be You? 3:11
6 How Beautiful You Are... 5:09
7 The Snakepit 6:56
8 Just Like Heaven 3:30
9 All I Want 5:18
10 Hot Hot Hot!!! 3:32
11 One More Time 4:29
12 Like Cockatoos 3:38
13 Icing Sugar 3:48
14 The Perfect Girl 2:33
15 A Thousand Hours 3:21
16 Shiver And Shake 3:26
17 Fight 4:26

EAC-Log, CUE-Sheed & NFO:

Click to open spoiler
Exact Audio Copy V0.99 prebeta 5 from 4. May 2009

EAC extraction logfile from 15. July 2010, 6:47

The Cure / Kiss Me, Kiss Me, Kiss Me

Used drive : PIONEER DVD-RW DVR-111D Adapter: 1 ID: 0

Read mode : Secure
Utilize accurate stream : Yes
Defeat audio cache : Yes
Make use of C2 pointers : No

Read offset correction : 48
Overread into Lead-In and Lead-Out : No
Fill up missing offset samples with silence : Yes
Delete leading and trailing silent blocks : No
Null samples used in CRC calculations : Yes
Used interface : Native Win32 interface for Win NT & 2000

Used output format : User Defined Encoder
Selected bitrate : 1024 kBit/s
Quality : High
Add ID3 tag : No
Command line compressor : C:\Program Files\Exact Audio Copy\FLAC\FLAC.EXE
Additional command line options : -8 -V %s

TOC of the extracted CD

Track | Start | Length | Start sector | End sector
———————————————————
1 | 0:00.32 | 6:14.63 | 32 | 28144
2 | 6:15.20 | 2:44.15 | 28145 | 40459
3 | 8:59.35 | 4:18.20 | 40460 | 59829
4 | 13:17.55 | 4:53.20 | 59830 | 81824
5 | 18:11.00 | 3:14.37 | 81825 | 96411
6 | 21:25.37 | 5:14.18 | 96412 | 119979
7 | 26:39.55 | 6:59.15 | 119980 | 151419
8 | 33:38.70 | 3:32.67 | 151420 | 167386
9 | 37:11.62 | 5:22.40 | 167387 | 191576
10 | 42:34.27 | 3:35.23 | 191577 | 207724
11 | 46:09.50 | 4:32.30 | 207725 | 228154
12 | 50:42.05 | 3:40.00 | 228155 | 244654
13 | 54:22.05 | 3:49.20 | 244655 | 261849
14 | 58:11.25 | 2:35.15 | 261850 | 273489
15 | 60:46.40 | 3:24.02 | 273490 | 288791
16 | 64:10.42 | 3:29.55 | 288792 | 304521
17 | 67:40.22 | 4:27.50 | 304522 | 324596

Range status and errors

Selected range

Filename C:\Music\Kiss.Me.wav

Peak level 100.0 %
Range quality 100.0 %
Test CRC 991910D3
Copy CRC 991910D3
Copy OK

No errors occurred

AccurateRip summary

Track 1 cannot be verified as accurate (confidence 10) [B00D5896], AccurateRip returned [DA8ECCF7]
Track 2 cannot be verified as accurate (confidence 10) [7B2EB3CE], AccurateRip returned [63E255F4]
Track 3 cannot be verified as accurate (confidence 10) [7EF41EAA], AccurateRip returned [C7F3438B]
Track 4 cannot be verified as accurate (confidence 10) [7AA7B71F], AccurateRip returned [D898F8D4]
Track 5 cannot be verified as accurate (confidence 10) [6BF3F1C2], AccurateRip returned [D8963A8A]
Track 6 cannot be verified as accurate (confidence 9) [74F7EB07], AccurateRip returned [0FFE971D]
Track 7 cannot be verified as accurate (confidence 10) [71FC4522], AccurateRip returned [DE7FCA83]
Track 8 cannot be verified as accurate (confidence 10) [AD02D2A0], AccurateRip returned [5985568C]
Track 9 cannot be verified as accurate (confidence 11) [4487EAB5], AccurateRip returned [7B132B05]
Track 10 cannot be verified as accurate (confidence 11) [329AA575], AccurateRip returned [18F9448C]
Track 11 cannot be verified as accurate (confidence 11) [B2F045C6], AccurateRip returned [6C4BCF37]
Track 12 cannot be verified as accurate (confidence 10) [159C6939], AccurateRip returned [FACF5562]
Track 13 cannot be verified as accurate (confidence 10) [A419797C], AccurateRip returned [3D6C7F71]
Track 14 cannot be verified as accurate (confidence 10) [4FAF074E], AccurateRip returned [39991A6C]
Track 15 cannot be verified as accurate (confidence 11) [13D40B94], AccurateRip returned [90FC4530]
Track 16 cannot be verified as accurate (confidence 10) [C7255A4A], AccurateRip returned [0BF16619]
Track 17 cannot be verified as accurate (confidence 10) [05008D28], AccurateRip returned [1AB3FCC1]

No tracks could be verified as accurate
You may have a different pressing from the one(s) in the database

End of status report

REM GENRE Alternative
REM DATE 1987
REM DISCID EE10E711
REM COMMENT “ExactAudioCopy v0.99pb5”
PERFORMER “The Cure”
TITLE “Kiss Me, Kiss Me, Kiss Me”
FILE “Kiss.Me.flac” WAVE
TRACK 01 AUDIO
TITLE “The Kiss”
PERFORMER “The Cure”
INDEX 00 00:00:00
INDEX 01 00:00:32
TRACK 02 AUDIO
TITLE “Catch”
PERFORMER “The Cure”
INDEX 00 06:14:12
INDEX 01 06:15:20
TRACK 03 AUDIO
TITLE “Torture”
PERFORMER “The Cure”
INDEX 00 08:58:05
INDEX 01 08:59:35
TRACK 04 AUDIO
TITLE “If Only Tonight We Could Sleep”
PERFORMER “The Cure”
INDEX 00 13:14:72
INDEX 01 13:17:55
TRACK 05 AUDIO
TITLE “Why Can’t I Be You?”
PERFORMER “The Cure”
INDEX 00 18:08:60
INDEX 01 18:11:00
TRACK 06 AUDIO
TITLE “How Beautiful You Are”
PERFORMER “The Cure”
INDEX 00 21:23:37
INDEX 01 21:25:37
TRACK 07 AUDIO
TITLE “The Snakepit”
PERFORMER “The Cure”
INDEX 00 26:37:17
INDEX 01 26:39:55
TRACK 08 AUDIO
TITLE “Just Like Heaven”
PERFORMER “The Cure”
INDEX 00 33:36:42
INDEX 01 33:38:70
TRACK 09 AUDIO
TITLE “All I Want”
PERFORMER “The Cure”
INDEX 00 37:10:32
INDEX 01 37:11:62
TRACK 10 AUDIO
TITLE “Hot Hot Hot!!!”
PERFORMER “The Cure”
INDEX 00 42:31:52
INDEX 01 42:34:27
TRACK 11 AUDIO
TITLE “One More Time”
PERFORMER “The Cure”
INDEX 00 46:07:52
INDEX 01 46:09:50
TRACK 12 AUDIO
TITLE “Like Cockatoos”
PERFORMER “The Cure”
INDEX 00 50:40:62
INDEX 01 50:42:05
TRACK 13 AUDIO
TITLE “Icing Sugar”
PERFORMER “The Cure”
INDEX 00 54:21:72
INDEX 01 54:22:05
TRACK 14 AUDIO
TITLE “The Perfect Girl”
PERFORMER “The Cure”
INDEX 01 58:11:25
TRACK 15 AUDIO
TITLE “A Thousand Hours”
PERFORMER “The Cure”
INDEX 00 60:44:65
INDEX 01 60:46:40
TRACK 16 AUDIO
TITLE “Shiver And Shake”
PERFORMER “The Cure”
INDEX 00 64:10:32
INDEX 01 64:10:42
TRACK 17 AUDIO
TITLE “Fight”
PERFORMER “The Cure”
INDEX 00 67:37:31
INDEX 01 67:40:22


Leave a Reply

Your email address will not be published. Required fields are marked *

Enter the text from the image below
 

This site uses Akismet to reduce spam. Learn how your comment data is processed.