The Cure – Kiss Me Kiss Me Kiss Me (Remastered Deluxe Edition)




No Cover available

Artist: The Cure
Year: 1987/2006
Genre: Rock
Notes: Discogs
Add. Notes: Remastered Deluxe Edition
Watch Songs on: YouTube
Cover incl.: Yes
Encoder: FLAC
Bitrate: ~1000 kBit/s (44.1 kHz/16 Bit/s)
Log & Cue incl.: Yes/Yes
Size: 1175 MB
Password: “slam” (without ” “)


All Downloads/Hosters are compatible

Download 1
KatFile.com
Turbobit.net
Rapidgator.net
FileFactory.com
Download 2
KatFile.com
Turbobit.net
Rapidgator.net
FileFactory.com

Tracklist:

The Original Album
1-1. The Kiss 6:16
1-2. Catch 2:44
1-3. Torture 4:16
1-4. If Only Tonight We Could Sleep 4:53
1-5. Why Can't I Be You? 3:13
1-6. How Beautiful You Are... 5:13
1-7. The Snakepit 7:00
1-8. Hey You! 2:23
1-9. Just Like Heaven 3:32
1-10. All I Want 5:21
1-11. Hot Hot Hot!!! 3:34
1-12. One More Time 4:31
1-13. Like Cockatoos 3:39
1-14. Icing Sugar 3:49
1-15. The Perfect Girl 2:33
1-16. A Thousand Hours 3:23
1-17. Shiver And Shake 3:28
1-18. Fight 4:31

Rarities 1986-1987
2-1. The Kiss (RS Home Demo) 3:40
2-2. The Perfect Girl (Studio Demo) 3:26
2-3. Like Cockatoos (Studio Demo) 2:11
2-4. All I Want (Studio Demo) 3:33
2-5. Hot Hot Hot!!! (Studio Demo) 3:49
2-6. Shiver And Shake (Studio Demo) 2:55
2-7. If Only Tonight We Could Sleep (Studio Demo) 3:16
2-8. Just Like Heaven (Studio Demo) 3:26
2-9. Hey You! (Studio Demo) 2:32
2-10. A Thousand Hours (Studio Alt Mix) 3:27
2-11. Icing Sugar (Studio Alt Mix) 3:20
2-12. One More Time (Studio Alt Mix) 4:36
2-13. How Beautiful You Are (Live Bootleg) 5:22
2-14. The Snakepit (Live Bootleg) 7:30
2-15. Catch (Live Bootleg) 2:32
2-16. Torture (Live Bootleg) 4:04
2-17. Fight (Live Bootleg) 4:30
2-18. Why Can't I Be You? (Live Bootleg) 7:43

EAC-Log, CUE-Sheed & NFO:

Click to open spoiler
Exact Audio Copy V0.99 prebeta 5 from 4. May 2009

EAC extraction logfile from 8. July 2010, 22:24

The Cure / Kiss Me Kiss Me Kiss Me (Deluxe Edition) (Disc 1)

Used drive : PIONEER DVD-RW DVR-111D Adapter: 1 ID: 0

Read mode : Secure
Utilize accurate stream : Yes
Defeat audio cache : Yes
Make use of C2 pointers : No

Read offset correction : 48
Overread into Lead-In and Lead-Out : No
Fill up missing offset samples with silence : Yes
Delete leading and trailing silent blocks : No
Null samples used in CRC calculations : Yes
Used interface : Native Win32 interface for Win NT & 2000

Used output format : User Defined Encoder
Selected bitrate : 1024 kBit/s
Quality : High
Add ID3 tag : No
Command line compressor : C:\Program Files\Exact Audio Copy\FLAC\FLAC.EXE
Additional command line options : -8 -V %s

TOC of the extracted CD

Track | Start | Length | Start sector | End sector
———————————————————
1 | 0:00.00 | 6:16.72 | 0 | 28271
2 | 6:16.72 | 2:44.09 | 28272 | 40580
3 | 9:01.06 | 4:16.69 | 40581 | 59849
4 | 13:18.00 | 4:53.14 | 59850 | 81838
5 | 18:11.14 | 3:13.28 | 81839 | 96341
6 | 21:24.42 | 5:13.50 | 96342 | 119866
7 | 26:38.17 | 7:00.04 | 119867 | 151370
8 | 33:38.21 | 2:23.65 | 151371 | 162160
9 | 36:02.11 | 3:32.36 | 162161 | 178096
10 | 39:34.47 | 5:21.49 | 178097 | 202220
11 | 44:56.21 | 3:34.51 | 202221 | 218321
12 | 48:30.72 | 4:31.52 | 218322 | 238698
13 | 53:02.49 | 3:39.73 | 238699 | 255196
14 | 56:42.47 | 3:49.03 | 255197 | 272374
15 | 60:31.50 | 2:33.12 | 272375 | 283861
16 | 63:04.62 | 3:23.49 | 283862 | 299135
17 | 66:28.36 | 3:28.59 | 299136 | 314794
18 | 69:57.20 | 4:31.72 | 314795 | 335191

Range status and errors

Selected range

Filename C:\Music\Kiss.Deluxe.CD1.wav

Peak level 100.0 %
Range quality 100.0 %
Test CRC 6F87B9F1
Copy CRC 6F87B9F1
Copy OK

No errors occurred

AccurateRip summary

Track 1 accurately ripped (confidence 85) [7F061AEE]
Track 2 accurately ripped (confidence 85) [94C65BF7]
Track 3 accurately ripped (confidence 88) [B85CE3D5]
Track 4 accurately ripped (confidence 88) [F2F0BA37]
Track 5 accurately ripped (confidence 88) [51E1B996]
Track 6 accurately ripped (confidence 88) [4A226B42]
Track 7 accurately ripped (confidence 86) [AF459AE8]
Track 8 accurately ripped (confidence 87) [7B08B578]
Track 9 accurately ripped (confidence 85) [168DA4ED]
Track 10 accurately ripped (confidence 88) [5265F5BA]
Track 11 accurately ripped (confidence 86) [FC537ED9]
Track 12 accurately ripped (confidence 87) [C183B6A9]
Track 13 accurately ripped (confidence 86) [038B0446]
Track 14 accurately ripped (confidence 86) [616400F8]
Track 15 accurately ripped (confidence 88) [9FDB0CCC]
Track 16 accurately ripped (confidence 88) [92288247]
Track 17 accurately ripped (confidence 88) [A30303B5]
Track 18 accurately ripped (confidence 86) [E325F33C]

All tracks accurately ripped

End of status report

Exact Audio Copy V0.99 prebeta 5 from 4. May 2009

EAC extraction logfile from 8. July 2010, 23:58

The Cure / Kiss Me Kiss Me Kiss Me (Deluxe Edition) (Disc 2)

Used drive : PIONEER DVD-RW DVR-111D Adapter: 1 ID: 0

Read mode : Secure
Utilize accurate stream : Yes
Defeat audio cache : Yes
Make use of C2 pointers : No

Read offset correction : 48
Overread into Lead-In and Lead-Out : No
Fill up missing offset samples with silence : Yes
Delete leading and trailing silent blocks : No
Null samples used in CRC calculations : Yes
Used interface : Native Win32 interface for Win NT & 2000

Used output format : User Defined Encoder
Selected bitrate : 1024 kBit/s
Quality : High
Add ID3 tag : No
Command line compressor : C:\Program Files\Exact Audio Copy\FLAC\FLAC.EXE
Additional command line options : -8 -V %s

TOC of the extracted CD

Track | Start | Length | Start sector | End sector
———————————————————
1 | 0:00.00 | 3:40.27 | 0 | 16526
2 | 3:40.27 | 3:26.28 | 16527 | 32004
3 | 7:06.55 | 2:11.69 | 32005 | 41898
4 | 9:18.49 | 3:33.06 | 41899 | 57879
5 | 12:51.55 | 3:49.51 | 57880 | 75105
6 | 16:41.31 | 2:55.54 | 75106 | 88284
7 | 19:37.10 | 3:16.26 | 88285 | 103010
8 | 22:53.36 | 3:26.24 | 103011 | 118484
9 | 26:19.60 | 2:32.43 | 118485 | 129927
10 | 28:52.28 | 3:27.02 | 129928 | 145454
11 | 32:19.30 | 3:20.19 | 145455 | 160473
12 | 35:39.49 | 4:36.48 | 160474 | 181221
13 | 40:16.22 | 5:22.37 | 181222 | 205408
14 | 45:38.59 | 7:30.04 | 205409 | 239162
15 | 53:08.63 | 2:32.16 | 239163 | 250578
16 | 55:41.04 | 4:04.48 | 250579 | 268926
17 | 59:45.52 | 4:30.03 | 268927 | 289179
18 | 64:15.55 | 7:43.03 | 289180 | 323907

Range status and errors

Selected range

Filename C:\Music\Kiss.Deluxe.CD2.wav

Peak level 100.0 %
Range quality 100.0 %
Test CRC FC4B4695
Copy CRC FC4B4695
Copy OK

No errors occurred

AccurateRip summary

Track 1 accurately ripped (confidence 41) [C9F439F7]
Track 2 accurately ripped (confidence 42) [EF786A44]
Track 3 accurately ripped (confidence 42) [CBF46A96]
Track 4 accurately ripped (confidence 42) [F1E946B5]
Track 5 accurately ripped (confidence 42) [0C5F73BF]
Track 6 accurately ripped (confidence 42) [76AC8F8E]
Track 7 accurately ripped (confidence 41) [2CF25177]
Track 8 accurately ripped (confidence 41) [C627874A]
Track 9 accurately ripped (confidence 41) [40462A93]
Track 10 accurately ripped (confidence 41) [4DD9FF05]
Track 11 accurately ripped (confidence 41) [3E8DD151]
Track 12 accurately ripped (confidence 41) [6F8E3EA3]
Track 13 accurately ripped (confidence 42) [B3AA2F6A]
Track 14 accurately ripped (confidence 42) [705B5A3A]
Track 15 accurately ripped (confidence 42) [9EF06E1B]
Track 16 accurately ripped (confidence 42) [69FFB1EB]
Track 17 accurately ripped (confidence 42) [71F66E6C]
Track 18 accurately ripped (confidence 42) [F6FAE536]

All tracks accurately ripped

End of status report

REM GENRE Alternative
REM DATE 2006
REM DISCID 06117512
REM COMMENT “ExactAudioCopy v0.99pb5”
PERFORMER “The Cure”
TITLE “Kiss Me Kiss Me Kiss Me (Deluxe Edition) (Disc 1)”
FILE “Kiss.Deluxe.CD1.flac” WAVE
TRACK 01 AUDIO
TITLE “The Kiss”
PERFORMER “The Cure”
INDEX 01 00:00:00
TRACK 02 AUDIO
TITLE “Catch”
PERFORMER “The Cure”
INDEX 00 06:16:24
INDEX 01 06:16:72
TRACK 03 AUDIO
TITLE “Torture”
PERFORMER “The Cure”
INDEX 00 09:00:42
INDEX 01 09:01:06
TRACK 04 AUDIO
TITLE “If Only Tonight We Could Sleep”
PERFORMER “The Cure”
INDEX 00 13:17:54
INDEX 01 13:18:00
TRACK 05 AUDIO
TITLE “Why Can’t I Be You?”
PERFORMER “The Cure”
INDEX 00 18:10:39
INDEX 01 18:11:14
TRACK 06 AUDIO
TITLE “How Beautiful You Are”
PERFORMER “The Cure”
INDEX 00 21:24:29
INDEX 01 21:24:42
TRACK 07 AUDIO
TITLE “The Snakepit”
PERFORMER “The Cure”
INDEX 00 26:37:09
INDEX 01 26:38:17
TRACK 08 AUDIO
TITLE “Hey You!”
PERFORMER “The Cure”
INDEX 00 33:36:07
INDEX 01 33:38:21
TRACK 09 AUDIO
TITLE “Just Like Heaven”
PERFORMER “The Cure”
INDEX 00 36:01:07
INDEX 01 36:02:11
TRACK 10 AUDIO
TITLE “All I Want”
PERFORMER “The Cure”
INDEX 00 39:34:12
INDEX 01 39:34:47
TRACK 11 AUDIO
TITLE “Hot Hot Hot!!!”
PERFORMER “The Cure”
INDEX 00 44:55:40
INDEX 01 44:56:21
TRACK 12 AUDIO
TITLE “One More Time”
PERFORMER “The Cure”
INDEX 00 48:30:39
INDEX 01 48:30:72
TRACK 13 AUDIO
TITLE “Like Cockatoos”
PERFORMER “The Cure”
INDEX 01 53:02:49
TRACK 14 AUDIO
TITLE “Icing Sugar”
PERFORMER “The Cure”
INDEX 00 56:42:17
INDEX 01 56:42:47
TRACK 15 AUDIO
TITLE “The Perfect Girl”
PERFORMER “The Cure”
INDEX 00 60:31:08
INDEX 01 60:31:50
TRACK 16 AUDIO
TITLE “A Thousand Hours”
PERFORMER “The Cure”
INDEX 00 63:04:53
INDEX 01 63:04:62
TRACK 17 AUDIO
TITLE “Shiver and Shake”
PERFORMER “The Cure”
INDEX 00 66:27:48
INDEX 01 66:28:36
TRACK 18 AUDIO
TITLE “Fight”
PERFORMER “The Cure”
INDEX 00 69:56:57
INDEX 01 69:57:20

REM GENRE Alternative
REM DATE 2006
REM DISCID F110DE12
REM COMMENT “ExactAudioCopy v0.99pb5”
PERFORMER “The Cure”
TITLE “Kiss Me Kiss Me Kiss Me (Deluxe Edition) (Disc 2)”
FILE “Kiss.Deluxe.CD2.flac” WAVE
TRACK 01 AUDIO
TITLE “The Kiss (RS Home Demo)”
PERFORMER “The Cure”
INDEX 01 00:00:00
TRACK 02 AUDIO
TITLE “The Perfect Girl (Studio Demo)”
PERFORMER “The Cure”
INDEX 00 03:38:44
INDEX 01 03:40:27
TRACK 03 AUDIO
TITLE “Like Cockatoos (Studio Demo)”
PERFORMER “The Cure”
INDEX 00 07:04:72
INDEX 01 07:06:55
TRACK 04 AUDIO
TITLE “All I Want (Studio Demo)”
PERFORMER “The Cure”
INDEX 00 09:16:66
INDEX 01 09:18:49
TRACK 05 AUDIO
TITLE “Hot Hot Hot!!! (Studio Demo)”
PERFORMER “The Cure”
INDEX 00 12:49:72
INDEX 01 12:51:55
TRACK 06 AUDIO
TITLE “Shiver And Shake (Studio Demo)”
PERFORMER “The Cure”
INDEX 00 16:39:48
INDEX 01 16:41:31
TRACK 07 AUDIO
TITLE “If Only Tonight We Could Sleep (Studio Demo)”
PERFORMER “The Cure”
INDEX 00 19:35:27
INDEX 01 19:37:10
TRACK 08 AUDIO
TITLE “Just Like Heaven (Studio Demo)”
PERFORMER “The Cure”
INDEX 00 22:51:53
INDEX 01 22:53:36
TRACK 09 AUDIO
TITLE “Hey You! (Studio Demo)”
PERFORMER “The Cure”
INDEX 00 26:18:02
INDEX 01 26:19:60
TRACK 10 AUDIO
TITLE “A Thousand Hours (Studio Demo)”
PERFORMER “The Cure”
INDEX 00 28:50:45
INDEX 01 28:52:28
TRACK 11 AUDIO
TITLE “Icing Sugar (Studio Alt Mix)”
PERFORMER “The Cure”
INDEX 00 32:17:47
INDEX 01 32:19:30
TRACK 12 AUDIO
TITLE “One More Time (Studio Alt Mix)”
PERFORMER “The Cure”
INDEX 00 35:39:04
INDEX 01 35:39:49
TRACK 13 AUDIO
TITLE “How Beautiful You Are… (Live Bootleg)”
PERFORMER “The Cure”
INDEX 00 40:15:25
INDEX 01 40:16:22
TRACK 14 AUDIO
TITLE “The Snakepit (Live Bootleg)”
PERFORMER “The Cure”
INDEX 01 45:38:59
TRACK 15 AUDIO
TITLE “Catch (Live Bootleg)”
PERFORMER “The Cure”
INDEX 01 53:08:63
TRACK 16 AUDIO
TITLE “Torture (Live Bootleg)”
PERFORMER “The Cure”
INDEX 01 55:41:04
TRACK 17 AUDIO
TITLE “Fight (Live Bootleg)”
PERFORMER “The Cure”
INDEX 01 59:45:52
TRACK 18 AUDIO
TITLE “Why Can’t I Be You? (Live Bootleg)”
PERFORMER “The Cure”
INDEX 01 64:15:55


Leave a Reply

Your email address will not be published. Required fields are marked *

Enter the text from the image below
 

This site uses Akismet to reduce spam. Learn how your comment data is processed.