The Cure – Japanese Whispers




No Cover available

Artist: The Cure
Year: 1983/1987
Genre: Rock
Notes: Discogs
Add. Notes:
Watch Songs on: YouTube
Cover incl.: Yes
Encoder: FLAC
Bitrate: ~800 kBit/s (44.1 kHz/16 Bit/s)
Log & Cue incl.: Yes/Yes
Size: 202,5 MB
Password: “slam” (without ” “)


All Downloads/Hosters are compatible

Download 1
KatFile.com
Turbobit.net
Rapidgator.net
FileFactory.com
Download 2
KatFile.com
Turbobit.net
Rapidgator.net
FileFactory.com

Tracklist:

1 Let's Go To Bed 3:34
2 The Dream 3:14
3 Just One Kiss 4:10
4 The Upstairs Room 3:34
5 The Walk 3:31
6 Speak My Language 2:41
7 La Ment 4:22
8 The Lovecats 3:39

EAC-Log, CUE-Sheed & NFO:

Click to open spoiler
Exact Audio Copy V0.99 prebeta 5 from 4. May 2009

EAC extraction logfile from 6. July 2010, 21:41

The Cure / Japanese Whispers

Used drive : PIONEER DVD-RW DVR-111D Adapter: 1 ID: 0

Read mode : Secure
Utilize accurate stream : Yes
Defeat audio cache : Yes
Make use of C2 pointers : No

Read offset correction : 48
Overread into Lead-In and Lead-Out : No
Fill up missing offset samples with silence : Yes
Delete leading and trailing silent blocks : No
Null samples used in CRC calculations : Yes
Used interface : Native Win32 interface for Win NT & 2000

Used output format : User Defined Encoder
Selected bitrate : 1024 kBit/s
Quality : High
Add ID3 tag : No
Command line compressor : C:\Program Files\Exact Audio Copy\FLAC\FLAC.EXE
Additional command line options : -8 -V %s

TOC of the extracted CD

Track | Start | Length | Start sector | End sector
———————————————————
1 | 0:00.33 | 3:34.12 | 33 | 16094
2 | 3:34.45 | 3:12.63 | 16095 | 30557
3 | 6:47.33 | 4:09.37 | 30558 | 49269
4 | 10:56.70 | 3:30.13 | 49270 | 65032
5 | 14:27.08 | 3:30.37 | 65033 | 80819
6 | 17:57.45 | 2:40.38 | 80820 | 92857
7 | 20:38.08 | 4:20.55 | 92858 | 112412
8 | 24:58.63 | 3:40.07 | 112413 | 128919

Range status and errors

Selected range

Filename C:\Music\Whispers.wav

Peak level 84.6 %
Range quality 100.0 %
Test CRC 05ACEA7F
Copy CRC 05ACEA7F
Copy OK

No errors occurred

AccurateRip summary

Track 1 accurately ripped (confidence 16) [FC2B024C]
Track 2 accurately ripped (confidence 16) [5C3ACA25]
Track 3 accurately ripped (confidence 16) [276D4075]
Track 4 accurately ripped (confidence 16) [330BB5D3]
Track 5 accurately ripped (confidence 16) [964FFD16]
Track 6 accurately ripped (confidence 16) [8CC64D38]
Track 7 accurately ripped (confidence 16) [A75E9C0E]
Track 8 accurately ripped (confidence 17) [5411CF70]

All tracks accurately ripped

End of status report

REM GENRE Alternative
REM DATE 1983
REM DISCID 6006B608
REM COMMENT “ExactAudioCopy v0.99pb5”
PERFORMER “The Cure”
TITLE “Japanese Whispers”
FILE “Whispers.flac” WAVE
TRACK 01 AUDIO
TITLE “Lets Go To Bed”
PERFORMER “The Cure”
INDEX 00 00:00:00
INDEX 01 00:00:33
TRACK 02 AUDIO
TITLE “The Dream”
PERFORMER “The Cure”
INDEX 01 03:34:45
TRACK 03 AUDIO
TITLE “Just One Kiss”
PERFORMER “The Cure”
INDEX 00 06:46:58
INDEX 01 06:47:33
TRACK 04 AUDIO
TITLE “The Upstairs Room”
PERFORMER “The Cure”
INDEX 01 10:56:70
TRACK 05 AUDIO
TITLE “The Walk”
PERFORMER “The Cure”
INDEX 01 14:27:08
TRACK 06 AUDIO
TITLE “Speak My Language”
PERFORMER “The Cure”
INDEX 00 17:56:58
INDEX 01 17:57:45
TRACK 07 AUDIO
TITLE “Lament”
PERFORMER “The Cure”
INDEX 01 20:38:08
TRACK 08 AUDIO
TITLE “The Love Cats”
PERFORMER “The Cure”
INDEX 01 24:58:63


0

Publication author

offline 8 hours

Chaos

3
Comments: 4Publics: 3360Registration: 02-02-2019
Spread the Download

Leave a Reply

Your email address will not be published. Required fields are marked *

Enter the text from the image below
 

This site uses Akismet to reduce spam. Learn how your comment data is processed.