The Cure – Greatest Hits (Deluxe Edition)




No Cover available

Artist: The Cure
Year: 2002
Genre: Rock
Notes: Discogs
Add. Notes: Deluxe Edition
Watch Songs on: YouTube
Cover incl.: Yes
Encoder: FLAC
Bitrate: ~1000 kBit/s (44.1 kHz/16 Bit/s)
Log & Cue incl.: Yes/Yes
Size: 1038,2 MB
Password: “slam” (without ” “)


All Downloads/Hosters are compatible

Download 1
KatFile.com
Turbobit.net
Rapidgator.net
FileFactory.com
Download 2
KatFile.com
Turbobit.net
Rapidgator.net
FileFactory.com

Tracklist:

Greatest Hits
1-1 Boys Don't Cry 2:42
1-2 A Forest 4:44
1-3 Let's Go To Bed 3:34
1-4 The Walk 3:31
1-5 The Lovecats 3:40
1-6 Inbetween Days 2:58
1-7 Close To Me 3:41
1-8 Why Can't I Be You 3:14
1-9 Just Like Heaven 3:32
1-10 Lullaby 4:10
1-11 Lovesong 3:28
1-12 Never Enough 4:28
1-13 High 3:35
1-14 Friday I'm In Love 3:35
1-15 Mint Car 3:29
1-16 Wrong Number 6:01
1-17 Cut Here 4:10
1-18 Just Say Yes 3:29

Acoustic Hits
2-1 Boys Don't Cry 3:03
2-2 A Forest 4:52
2-3 Let's Go To Bed 3:34
2-4 The Walk 3:26
2-5 The Lovecats 3:48
2-6 Inbetween Days 3:01
2-7 Close To Me 3:44
2-8 Why Can't I Be You 3:29
2-9 Just Like Heaven 3:35
2-10 Lullaby 4:12
2-11 Lovesong 3:30
2-12 Never Enough 4:46
2-13 High 3:41
2-14 Friday I'm In Love 3:31
2-15 Mint Car 3:27
2-16 Wrong Number 5:55
2-17 Cut Here 4:13
2-18 Just Say Yes 3:29

EAC-Log, CUE-Sheed & NFO:

Click to open spoiler
Exact Audio Copy V0.99 prebeta 5 from 4. May 2009

EAC extraction logfile from 4. July 2010, 15:17

The Cure / Acoustic Hits

Used drive : PIONEER DVD-RW DVR-111D Adapter: 1 ID: 0

Read mode : Secure
Utilize accurate stream : Yes
Defeat audio cache : Yes
Make use of C2 pointers : No

Read offset correction : 48
Overread into Lead-In and Lead-Out : No
Fill up missing offset samples with silence : Yes
Delete leading and trailing silent blocks : No
Null samples used in CRC calculations : Yes
Used interface : Native Win32 interface for Win NT & 2000

Used output format : User Defined Encoder
Selected bitrate : 1024 kBit/s
Quality : High
Add ID3 tag : No
Command line compressor : C:\Program Files\Exact Audio Copy\FLAC\FLAC.EXE
Additional command line options : -8 -V %s

TOC of the extracted CD

Track | Start | Length | Start sector | End sector
———————————————————
1 | 0:00.00 | 3:03.71 | 0 | 13795
2 | 3:03.71 | 4:52.13 | 13796 | 35708
3 | 7:56.09 | 3:34.36 | 35709 | 51794
4 | 11:30.45 | 3:26.53 | 51795 | 67297
5 | 14:57.23 | 3:48.60 | 67298 | 84457
6 | 18:46.08 | 3:01.51 | 84458 | 98083
7 | 21:47.59 | 3:44.06 | 98084 | 114889
8 | 25:31.65 | 3:29.72 | 114890 | 130636
9 | 29:01.62 | 3:35.28 | 130637 | 146789
10 | 32:37.15 | 4:12.72 | 146790 | 165761
11 | 36:50.12 | 3:30.00 | 165762 | 181511
12 | 40:20.12 | 4:46.42 | 181512 | 203003
13 | 45:06.54 | 3:41.58 | 203004 | 219636
14 | 48:48.37 | 3:31.05 | 219637 | 235466
15 | 52:19.42 | 3:27.41 | 235467 | 251032
16 | 55:47.08 | 5:55.03 | 251033 | 277660
17 | 61:42.11 | 4:13.03 | 277661 | 296638
18 | 65:55.14 | 3:29.46 | 296639 | 312359

Range status and errors

Selected range

Filename C:\Music\Hits.CD2.wav

Peak level 100.0 %
Range quality 100.0 %
Test CRC E4A3EA3C
Copy CRC E4A3EA3C
Copy OK

No errors occurred

AccurateRip summary

Track 1 accurately ripped (confidence 12) [ABEF59A8]
Track 2 accurately ripped (confidence 12) [20D55AA3]
Track 3 accurately ripped (confidence 12) [AB71F331]
Track 4 accurately ripped (confidence 12) [C7E4427D]
Track 5 accurately ripped (confidence 12) [C8B48D79]
Track 6 accurately ripped (confidence 12) [576DF9E6]
Track 7 accurately ripped (confidence 12) [7A26A5E7]
Track 8 accurately ripped (confidence 12) [4ED9EACB]
Track 9 accurately ripped (confidence 12) [F0EC17A8]
Track 10 accurately ripped (confidence 12) [A04F7FA0]
Track 11 accurately ripped (confidence 11) [D25F79DE]
Track 12 accurately ripped (confidence 12) [6785F18A]
Track 13 accurately ripped (confidence 12) [4A041444]
Track 14 accurately ripped (confidence 12) [7129EAD8]
Track 15 accurately ripped (confidence 12) [B45C6D44]
Track 16 accurately ripped (confidence 11) [E6911DE1]
Track 17 accurately ripped (confidence 11) [C31F765B]
Track 18 accurately ripped (confidence 12) [66FEAD61]

All tracks accurately ripped

End of status report

Exact Audio Copy V0.99 prebeta 5 from 4. May 2009

EAC extraction logfile from 4. July 2010, 14:09

The Cure / Greatest Hits CD1

Used drive : PIONEER DVD-RW DVR-111D Adapter: 1 ID: 0

Read mode : Secure
Utilize accurate stream : Yes
Defeat audio cache : Yes
Make use of C2 pointers : No

Read offset correction : 48
Overread into Lead-In and Lead-Out : No
Fill up missing offset samples with silence : Yes
Delete leading and trailing silent blocks : No
Null samples used in CRC calculations : Yes
Used interface : Native Win32 interface for Win NT & 2000

Used output format : User Defined Encoder
Selected bitrate : 1024 kBit/s
Quality : High
Add ID3 tag : No
Command line compressor : C:\Program Files\Exact Audio Copy\FLAC\FLAC.EXE
Additional command line options : -8 -V %s

TOC of the extracted CD

Track | Start | Length | Start sector | End sector
———————————————————
1 | 0:00.00 | 2:42.23 | 0 | 12172
2 | 2:42.23 | 4:44.16 | 12173 | 33488
3 | 7:26.39 | 3:34.03 | 33489 | 49541
4 | 11:00.42 | 3:31.45 | 49542 | 65411
5 | 14:32.12 | 3:40.31 | 65412 | 81942
6 | 18:12.43 | 2:58.05 | 81943 | 95297
7 | 21:10.48 | 3:41.62 | 95298 | 111934
8 | 24:52.35 | 3:14.36 | 111935 | 126520
9 | 28:06.71 | 3:32.10 | 126521 | 142430
10 | 31:39.06 | 4:10.48 | 142431 | 161228
11 | 35:49.54 | 3:28.25 | 161229 | 176853
12 | 39:18.04 | 4:28.14 | 176854 | 196967
13 | 43:46.18 | 3:35.29 | 196968 | 213121
14 | 47:21.47 | 3:35.22 | 213122 | 229268
15 | 50:56.69 | 3:29.54 | 229269 | 244997
16 | 54:26.48 | 6:01.65 | 244998 | 272137
17 | 60:28.38 | 4:10.55 | 272138 | 290942
18 | 64:39.18 | 3:29.46 | 290943 | 306663

Range status and errors

Selected range

Filename C:\Music\Hits.CD1.wav

Peak level 100.0 %
Range quality 100.0 %
Test CRC F7F9B2FB
Copy CRC F7F9B2FB
Copy OK

No errors occurred

AccurateRip summary

Track 1 accurately ripped (confidence 25) [878AC825]
Track 2 accurately ripped (confidence 24) [7ECB5C16]
Track 3 accurately ripped (confidence 24) [0E52A504]
Track 4 accurately ripped (confidence 24) [FF34AFB5]
Track 5 accurately ripped (confidence 24) [4C19E9A9]
Track 6 accurately ripped (confidence 24) [9B6A59AC]
Track 7 accurately ripped (confidence 23) [51A16260]
Track 8 accurately ripped (confidence 24) [81E9D242]
Track 9 accurately ripped (confidence 25) [DAE2AEFE]
Track 10 accurately ripped (confidence 24) [3561C552]
Track 11 accurately ripped (confidence 23) [CFE2B4CA]
Track 12 accurately ripped (confidence 22) [2A0EA6BF]
Track 13 accurately ripped (confidence 23) [0AD45E3C]
Track 14 accurately ripped (confidence 24) [8E94AF20]
Track 15 accurately ripped (confidence 23) [B091B99D]
Track 16 accurately ripped (confidence 22) [79481F7E]
Track 17 accurately ripped (confidence 22) [BEA55343]
Track 18 accurately ripped (confidence 22) [89DE9495]

All tracks accurately ripped

End of status report

REM GENRE Alternative
REM DATE 2001
REM DISCID 070FF812
REM COMMENT “ExactAudioCopy v0.99pb5”
PERFORMER “The Cure”
TITLE “Greatest Hits CD1”
FILE “Hits.CD1.flac” WAVE
TRACK 01 AUDIO
TITLE “Boys Don’t Cry”
PERFORMER “The Cure”
INDEX 01 00:00:00
TRACK 02 AUDIO
TITLE “A Forest”
PERFORMER “The Cure”
INDEX 00 02:41:15
INDEX 01 02:42:23
TRACK 03 AUDIO
TITLE “Let’s Go to Bed”
PERFORMER “The Cure”
INDEX 00 07:25:07
INDEX 01 07:26:39
TRACK 04 AUDIO
TITLE “The Walk”
PERFORMER “The Cure”
INDEX 00 10:59:22
INDEX 01 11:00:42
TRACK 05 AUDIO
TITLE “The Lovecats”
PERFORMER “The Cure”
INDEX 00 14:30:53
INDEX 01 14:32:12
TRACK 06 AUDIO
TITLE “Inbetween Days”
PERFORMER “The Cure”
INDEX 00 18:10:57
INDEX 01 18:12:43
TRACK 07 AUDIO
TITLE “Close to Me”
PERFORMER “The Cure”
INDEX 00 21:09:22
INDEX 01 21:10:48
TRACK 08 AUDIO
TITLE “Why Can’t I Be You?”
PERFORMER “The Cure”
INDEX 00 24:50:07
INDEX 01 24:52:35
TRACK 09 AUDIO
TITLE “Just Like Heaven”
PERFORMER “The Cure”
INDEX 00 28:05:28
INDEX 01 28:06:71
TRACK 10 AUDIO
TITLE “Lullaby”
PERFORMER “The Cure”
INDEX 00 31:38:17
INDEX 01 31:39:06
TRACK 11 AUDIO
TITLE “Lovesong”
PERFORMER “The Cure”
INDEX 00 35:48:04
INDEX 01 35:49:54
TRACK 12 AUDIO
TITLE “Never Enough”
PERFORMER “The Cure”
INDEX 00 39:16:47
INDEX 01 39:18:04
TRACK 13 AUDIO
TITLE “High”
PERFORMER “The Cure”
INDEX 00 43:45:24
INDEX 01 43:46:18
TRACK 14 AUDIO
TITLE “Friday I’m in Love”
PERFORMER “The Cure”
INDEX 00 47:20:41
INDEX 01 47:21:47
TRACK 15 AUDIO
TITLE “Mint Car”
PERFORMER “The Cure”
INDEX 00 50:56:02
INDEX 01 50:56:69
TRACK 16 AUDIO
TITLE “Wrong Number”
PERFORMER “The Cure”
INDEX 00 54:26:04
INDEX 01 54:26:48
TRACK 17 AUDIO
TITLE “Cut Here”
PERFORMER “The Cure”
INDEX 00 60:27:15
INDEX 01 60:28:38
TRACK 18 AUDIO
TITLE “Just Say Yes”
PERFORMER “The Cure”
INDEX 00 64:39:12
INDEX 01 64:39:18

REM GENRE Alternative
REM DATE 2001
REM DISCID 0D104412
REM COMMENT “ExactAudioCopy v0.99pb5”
PERFORMER “The Cure”
TITLE “Acoustic Hits”
FILE “Hits.CD2.flac” WAVE
TRACK 01 AUDIO
TITLE “Boys Don’t Cry (Acoustic)”
PERFORMER “The Cure”
INDEX 01 00:00:00
TRACK 02 AUDIO
TITLE “A Forest (Acoustic)”
PERFORMER “The Cure”
INDEX 00 03:01:51
INDEX 01 03:03:71
TRACK 03 AUDIO
TITLE “Let’s Go To Bed (Acoustic)”
PERFORMER “The Cure”
INDEX 00 07:54:00
INDEX 01 07:56:09
TRACK 04 AUDIO
TITLE “The Walk (Acoustic)”
PERFORMER “The Cure”
INDEX 00 11:29:62
INDEX 01 11:30:45
TRACK 05 AUDIO
TITLE “The Lovecats (Acoustic)”
PERFORMER “The Cure”
INDEX 00 14:56:27
INDEX 01 14:57:23
TRACK 06 AUDIO
TITLE “Inbetween Days (Acoustic)”
PERFORMER “The Cure”
INDEX 00 18:45:47
INDEX 01 18:46:08
TRACK 07 AUDIO
TITLE “Close To Me (Acoustic)”
PERFORMER “The Cure”
INDEX 00 21:47:09
INDEX 01 21:47:59
TRACK 08 AUDIO
TITLE “Why Can’t I Be You? (Acoustic)”
PERFORMER “The Cure”
INDEX 00 25:30:46
INDEX 01 25:31:65
TRACK 09 AUDIO
TITLE “Just Like Heaven (Acoustic)”
PERFORMER “The Cure”
INDEX 00 29:00:32
INDEX 01 29:01:62
TRACK 10 AUDIO
TITLE “Lullaby (Acoustic)”
PERFORMER “The Cure”
INDEX 00 32:36:48
INDEX 01 32:37:15
TRACK 11 AUDIO
TITLE “Lovesong (Acoustic)”
PERFORMER “The Cure”
INDEX 00 36:48:58
INDEX 01 36:50:12
TRACK 12 AUDIO
TITLE “Never Enough (Acoustic)”
PERFORMER “The Cure”
INDEX 00 40:18:12
INDEX 01 40:20:12
TRACK 13 AUDIO
TITLE “High (Acoustic)”
PERFORMER “The Cure”
INDEX 00 45:05:32
INDEX 01 45:06:54
TRACK 14 AUDIO
TITLE “Friday I’m In Love (Acoustic)”
PERFORMER “The Cure”
INDEX 00 48:47:54
INDEX 01 48:48:37
TRACK 15 AUDIO
TITLE “Mint Car (Acoustic)”
PERFORMER “The Cure”
INDEX 00 52:18:10
INDEX 01 52:19:42
TRACK 16 AUDIO
TITLE “Wrong Number (Acoustic)”
PERFORMER “The Cure”
INDEX 00 55:45:16
INDEX 01 55:47:08
TRACK 17 AUDIO
TITLE “Cut Here (Acoustic)”
PERFORMER “The Cure”
INDEX 00 61:40:16
INDEX 01 61:42:11
TRACK 18 AUDIO
TITLE “Just Say Yes (Acoustic)”
PERFORMER “The Cure”
INDEX 00 65:53:02
INDEX 01 65:55:14


0

Publication author

offline 5 days

Chaos

3
Comments: 4Publics: 3565Registration: 02-02-2019
Spread the Download

Leave a Reply

Your email address will not be published. Required fields are marked *

Enter the text from the image below
 

This site uses Akismet to reduce spam. Learn how your comment data is processed.