The Cure – Faith




No Cover available

Artist: The Cure
Year: 1981/1988
Genre: Rock
Notes: Discogs
Add. Notes:
Watch Songs on: YouTube
Cover incl.: Yes
Encoder: FLAC
Bitrate: ~700 kBit/s (44.1 kHz/16 Bit/s)
Log & Cue incl.: Yes/Yes
Size: 219,3 MB
Password: “slam” (without ” “)


All Downloads/Hosters are compatible

Download 1
KatFile.com
Turbobit.net
FileFactory.com
Rapidgator.net
Download 2
KatFile.com
Turbobit.net
FileFactory.com
Rapidgator.net

Tracklist:

1 The Holy Hour 4:25
2 Primary 3:35
3 Other Voices 4:28
4 All Cats Are Grey 5:28
5 The Funeral Party 4:14
6 Doubt 3:11
7 The Drowning Man 4:50
8 Faith 6:43

EAC-Log, CUE-Sheed & NFO:

Click to open spoiler
Exact Audio Copy V0.99 prebeta 5 from 4. May 2009

EAC extraction logfile from 2. July 2010, 23:23

The Cure / Faith

Used drive : PIONEER DVD-RW DVR-111D Adapter: 1 ID: 0

Read mode : Secure
Utilize accurate stream : Yes
Defeat audio cache : Yes
Make use of C2 pointers : No

Read offset correction : 48
Overread into Lead-In and Lead-Out : No
Fill up missing offset samples with silence : Yes
Delete leading and trailing silent blocks : No
Null samples used in CRC calculations : Yes
Used interface : Native Win32 interface for Win NT & 2000

Used output format : User Defined Encoder
Selected bitrate : 1024 kBit/s
Quality : High
Add ID3 tag : No
Command line compressor : C:\Program Files\Exact Audio Copy\FLAC\FLAC.EXE
Additional command line options : -8 -V %s

TOC of the extracted CD

Track | Start | Length | Start sector | End sector
———————————————————
1 | 0:00.32 | 4:25.43 | 32 | 19949
2 | 4:26.00 | 3:34.57 | 19950 | 36056
3 | 8:00.57 | 4:27.70 | 36057 | 56151
4 | 12:28.52 | 5:26.48 | 56152 | 80649
5 | 17:55.25 | 4:13.70 | 80650 | 99694
6 | 22:09.20 | 3:11.40 | 99695 | 114059
7 | 25:20.60 | 4:48.65 | 114060 | 135724
8 | 30:09.50 | 6:40.60 | 135725 | 165784

Range status and errors

Selected range

Filename C:\Music\Faith.wav

Peak level 100.0 %
Range quality 100.0 %
Test CRC BC851A66
Copy CRC BC851A66
Copy OK

No errors occurred

AccurateRip summary

Track 1 accurately ripped (confidence 4) [B7112D67]
Track 2 accurately ripped (confidence 4) [C06B494C]
Track 3 accurately ripped (confidence 4) [6C2FA23E]
Track 4 accurately ripped (confidence 4) [4A82F6C8]
Track 5 accurately ripped (confidence 4) [429CFE14]
Track 6 accurately ripped (confidence 4) [6E33AB71]
Track 7 accurately ripped (confidence 4) [6FE6B188]
Track 8 accurately ripped (confidence 3) [1D1CB9E6]

All tracks accurately ripped

End of status report

REM GENRE Alternative
REM DATE 1981
REM DISCID 5808A208
REM COMMENT “ExactAudioCopy v0.99pb5”
PERFORMER “The Cure”
TITLE “Faith”
FILE “Faith.flac” WAVE
TRACK 01 AUDIO
TITLE “The Holy Hour”
PERFORMER “The Cure”
INDEX 00 00:00:00
INDEX 01 00:00:32
TRACK 02 AUDIO
TITLE “Primary”
PERFORMER “The Cure”
INDEX 01 04:26:00
TRACK 03 AUDIO
TITLE “Other Voices”
PERFORMER “The Cure”
INDEX 01 08:00:57
TRACK 04 AUDIO
TITLE “All Cats Are Grey”
PERFORMER “The Cure”
INDEX 01 12:28:52
TRACK 05 AUDIO
TITLE “The Funeral Party”
PERFORMER “The Cure”
INDEX 00 17:53:27
INDEX 01 17:55:25
TRACK 06 AUDIO
TITLE “Doubt”
PERFORMER “The Cure”
INDEX 01 22:09:20
TRACK 07 AUDIO
TITLE “The Drowning Man”
PERFORMER “The Cure”
INDEX 01 25:20:60
TRACK 08 AUDIO
TITLE “Faith”
PERFORMER “The Cure”
INDEX 01 30:09:50


Leave a Reply

Your email address will not be published. Required fields are marked *

Enter the text from the image below
 

This site uses Akismet to reduce spam. Learn how your comment data is processed.