The Cure – Faith (Remastered Deluxe Edition)




No Cover available

Artist: The Cure
Year: 1981/2005
Genre: Rock
Notes: Discogs
Add. Notes: Remastered Deluxe Edition
Watch Songs on: YouTube
Cover incl.: Yes
Encoder: FLAC
Bitrate: ~900 kBit/s (44.1 kHz/16 Bit/s)
Log & Cue incl.: Yes/Yes
Size: 1023,4 MB
Password: “slam” (without ” “)


All Downloads/Hosters are compatible

Download 1
KatFile.com
Turbobit.net
Rapidgator.net
FileFactory.com
Download 2
KatFile.com
Turbobit.net
Rapidgator.net
FileFactory.com

Tracklist:

The Original Album
1-1 The Holy Hour 4:26
1-2 Primary 3:39
1-3 Other Voices 4:23
1-4 All Cats Are Grey 5:27
1-5 The Funeral Party 4:14
1-6 Doubt 3:11
1-7 The Drowning Man 4:49
1-8 Faith 6:59
Bonus
1-9 Carnage Visors: The Soundtrack 27:51

Rarities 1980 - 1981
2-1 Faith (RS Home Instrumental Demo 8/80) 2:56
2-2 Doubt (RS Home Instrumental Demo 8/80) 1:09
2-3 Drowning (Group Home Instrumental Demo 9/80) 
1:52
2-4 The Holy Hour (Group Home Instrumental Demo 9/80) 
4:48
2-5 Primary (Morgan Studio Out-take 9/80) 4:22
2-6 Going Home Time (Morgan Studio Guide Vox Out-take 
9/80) 3:31
2-7 The Violin Song (Faith Studio Guide Vox Out-take 
2/81) 3:38
2-8 A Normal Story (Faith Studio Guide Vox Out-take 
2/81) 3:04
2-9 All Cats Are Grey (Live Somewhere Summer/81) 5:37
2-10 The Funeral Party (Live Somewhere Summer/81) 
4:38
2-11 Other Voices (Live Somewhere Summer/81) 4:45
2-12 The Drowning Man (Live Australasia 8/81) 5:48
2-13 Faith (Live In The Sydney Capitol Theatre 8/81) 
10:23
2-14 Forever (Live Somewhere Summer/81) 9:19
2-15 Charlotte Sometimes (Single 10/81) 4:13

EAC-Log, CUE-Sheed & NFO:

Click to open spoiler
Exact Audio Copy V0.99 prebeta 5 from 4. May 2009

EAC extraction logfile from 9. July 2010, 8:02

The Cure / Faith (Deluxe Edition) (Disc 1)

Used drive : PIONEER DVD-RW DVR-111D Adapter: 1 ID: 0

Read mode : Secure
Utilize accurate stream : Yes
Defeat audio cache : Yes
Make use of C2 pointers : No

Read offset correction : 48
Overread into Lead-In and Lead-Out : No
Fill up missing offset samples with silence : Yes
Delete leading and trailing silent blocks : No
Null samples used in CRC calculations : Yes
Used interface : Native Win32 interface for Win NT & 2000

Used output format : User Defined Encoder
Selected bitrate : 1024 kBit/s
Quality : High
Add ID3 tag : No
Command line compressor : C:\Program Files\Exact Audio Copy\FLAC\FLAC.EXE
Additional command line options : -8 -V %s

TOC of the extracted CD

Track | Start | Length | Start sector | End sector
———————————————————
1 | 0:00.00 | 4:26.40 | 0 | 19989
2 | 4:26.40 | 3:39.40 | 19990 | 36454
3 | 8:06.05 | 4:23.42 | 36455 | 56221
4 | 12:29.47 | 5:27.48 | 56222 | 80794
5 | 17:57.20 | 4:14.32 | 80795 | 99876
6 | 22:11.52 | 3:11.25 | 99877 | 114226
7 | 25:23.02 | 4:49.60 | 114227 | 135961
8 | 30:12.62 | 6:59.28 | 135962 | 167414
9 | 37:12.15 | 27:51.10 | 167415 | 292749

Range status and errors

Selected range

Filename C:\Music\Faith.Deluxe.CD1.wav

Peak level 98.7 %
Range quality 100.0 %
Test CRC CD240D33
Copy CRC CD240D33
Copy OK

No errors occurred

AccurateRip summary

Track 1 accurately ripped (confidence 48) [D025B078]
Track 2 accurately ripped (confidence 48) [39D3539F]
Track 3 accurately ripped (confidence 49) [470C3FC8]
Track 4 accurately ripped (confidence 49) [540E4B15]
Track 5 accurately ripped (confidence 49) [68F217ED]
Track 6 accurately ripped (confidence 49) [AF3DEC4C]
Track 7 accurately ripped (confidence 49) [69CCD5B8]
Track 8 accurately ripped (confidence 49) [E5DCBBCA]
Track 9 accurately ripped (confidence 41) [483921CC]

All tracks accurately ripped

End of status report

Exact Audio Copy V0.99 prebeta 5 from 4. May 2009

EAC extraction logfile from 9. July 2010, 19:00

The Cure / Faith (Deluxe Edition) (Disc 2)

Used drive : PIONEER DVD-RW DVR-111D Adapter: 1 ID: 0

Read mode : Secure
Utilize accurate stream : Yes
Defeat audio cache : Yes
Make use of C2 pointers : No

Read offset correction : 48
Overread into Lead-In and Lead-Out : No
Fill up missing offset samples with silence : Yes
Delete leading and trailing silent blocks : No
Null samples used in CRC calculations : Yes
Used interface : Native Win32 interface for Win NT & 2000

Used output format : User Defined Encoder
Selected bitrate : 1024 kBit/s
Quality : High
Add ID3 tag : No
Command line compressor : C:\Program Files\Exact Audio Copy\FLAC\FLAC.EXE
Additional command line options : -8 -V %s

TOC of the extracted CD

Track | Start | Length | Start sector | End sector
———————————————————
1 | 0:00.00 | 2:56.40 | 0 | 13239
2 | 2:56.40 | 1:09.25 | 13240 | 18439
3 | 4:05.65 | 1:52.02 | 18440 | 26841
4 | 5:57.67 | 4:48.43 | 26842 | 48484
5 | 10:46.35 | 4:22.55 | 48485 | 68189
6 | 15:09.15 | 3:31.65 | 68190 | 84079
7 | 18:41.05 | 3:38.40 | 84080 | 100469
8 | 22:19.45 | 3:04.30 | 100470 | 114299
9 | 25:24.00 | 5:37.17 | 114300 | 139591
10 | 31:01.17 | 4:38.23 | 139592 | 160464
11 | 35:39.40 | 4:45.30 | 160465 | 181869
12 | 40:24.70 | 5:48.72 | 181870 | 208041
13 | 46:13.67 | 10:23.73 | 208042 | 254839
14 | 56:37.65 | 9:19.22 | 254840 | 296786
15 | 65:57.12 | 4:13.25 | 296787 | 315786

Range status and errors

Selected range

Filename C:\Music\Faith.Deluxe.CD2.wav

Peak level 98.6 %
Range quality 100.0 %
Test CRC 8E058B60
Copy CRC 8E058B60
Copy OK

No errors occurred

AccurateRip summary

Track 1 accurately ripped (confidence 39) [06C6FCFD]
Track 2 accurately ripped (confidence 39) [DDAE6539]
Track 3 accurately ripped (confidence 40) [07AA456A]
Track 4 accurately ripped (confidence 41) [CC3801A9]
Track 5 accurately ripped (confidence 41) [C666A547]
Track 6 accurately ripped (confidence 42) [A4B77F76]
Track 7 accurately ripped (confidence 42) [06EE42A8]
Track 8 accurately ripped (confidence 42) [5280CB2F]
Track 9 accurately ripped (confidence 41) [0289F539]
Track 10 accurately ripped (confidence 41) [902BB59C]
Track 11 accurately ripped (confidence 41) [8353E6B0]
Track 12 accurately ripped (confidence 42) [E4100BBC]
Track 13 accurately ripped (confidence 40) [756C9AFC]
Track 14 accurately ripped (confidence 40) [3718A0D1]
Track 15 accurately ripped (confidence 40) [084DCDCB]

All tracks accurately ripped

End of status report

REM GENRE Alternative
REM DATE 2005
REM DISCID 740F3F09
REM COMMENT “ExactAudioCopy v0.99pb5”
PERFORMER “The Cure”
TITLE “Faith (Deluxe Edition) (Disc 1)”
FILE “Faith.Deluxe.CD1.flac” WAVE
TRACK 01 AUDIO
TITLE “The Holy Hour”
PERFORMER “The Cure”
INDEX 01 00:00:00
TRACK 02 AUDIO
TITLE “Primary”
PERFORMER “The Cure”
INDEX 01 04:26:40
TRACK 03 AUDIO
TITLE “Other Voices”
PERFORMER “The Cure”
INDEX 01 08:06:05
TRACK 04 AUDIO
TITLE “All Cats Are Grey”
PERFORMER “The Cure”
INDEX 01 12:29:47
TRACK 05 AUDIO
TITLE “The Funeral Party”
PERFORMER “The Cure”
INDEX 01 17:57:20
TRACK 06 AUDIO
TITLE “Doubt”
PERFORMER “The Cure”
INDEX 01 22:11:52
TRACK 07 AUDIO
TITLE “The Drowning Man”
PERFORMER “The Cure”
INDEX 01 25:23:02
TRACK 08 AUDIO
TITLE “Faith”
PERFORMER “The Cure”
INDEX 01 30:12:62
TRACK 09 AUDIO
TITLE “Carnage Visors (The Soundtrack)”
PERFORMER “The Cure”
INDEX 00 36:55:47
INDEX 01 37:12:15

REM GENRE Alternative
REM DATE 2005
REM DISCID DA10720F
REM COMMENT “ExactAudioCopy v0.99pb5”
PERFORMER “The Cure”
TITLE “Faith (Deluxe Edition) (Disc 2)”
FILE “Faith.Deluxe.CD2.flac” WAVE
TRACK 01 AUDIO
TITLE “Faith (RS Home Demo)”
PERFORMER “The Cure”
INDEX 01 00:00:00
TRACK 02 AUDIO
TITLE “Doubt (RS Home Demo)”
PERFORMER “The Cure”
INDEX 00 02:54:72
INDEX 01 02:56:40
TRACK 03 AUDIO
TITLE “Drowning (Group Home Demo)”
PERFORMER “The Cure”
INDEX 00 04:04:25
INDEX 01 04:05:65
TRACK 04 AUDIO
TITLE “The Holy Hour (Group Home Demo)”
PERFORMER “The Cure”
INDEX 00 05:56:25
INDEX 01 05:57:67
TRACK 05 AUDIO
TITLE “Primary (Studio Out-Take)”
PERFORMER “The Cure”
INDEX 00 10:44:67
INDEX 01 10:46:35
TRACK 06 AUDIO
TITLE “Going Home Time (Studio Out-Take)”
PERFORMER “The Cure”
INDEX 00 15:07:47
INDEX 01 15:09:15
TRACK 07 AUDIO
TITLE “The Violin Song (Studio Out-Take)”
PERFORMER “The Cure”
INDEX 00 18:39:37
INDEX 01 18:41:05
TRACK 08 AUDIO
TITLE “A Normal Story (Studio Out-Take)”
PERFORMER “The Cure”
INDEX 00 22:18:02
INDEX 01 22:19:45
TRACK 09 AUDIO
TITLE “All Cats Are Grey (Live)”
PERFORMER “The Cure”
INDEX 00 25:22:30
INDEX 01 25:24:00
TRACK 10 AUDIO
TITLE “The Funeral Party (Live)”
PERFORMER “The Cure”
INDEX 00 30:59:47
INDEX 01 31:01:17
TRACK 11 AUDIO
TITLE “Other Voices (Live)”
PERFORMER “The Cure”
INDEX 00 35:37:72
INDEX 01 35:39:40
TRACK 12 AUDIO
TITLE “The Drowning Man (Live)”
PERFORMER “The Cure”
INDEX 00 40:23:27
INDEX 01 40:24:70
TRACK 13 AUDIO
TITLE “Faith (Live)”
PERFORMER “The Cure”
INDEX 00 46:12:27
INDEX 01 46:13:67
TRACK 14 AUDIO
TITLE “Forever (Live)”
PERFORMER “The Cure”
INDEX 00 56:36:30
INDEX 01 56:37:65
TRACK 15 AUDIO
TITLE “Charlotte Sometimes (Single)”
PERFORMER “The Cure”
INDEX 01 65:57:12


Leave a Reply

Your email address will not be published. Required fields are marked *

This site uses Akismet to reduce spam. Learn how your comment data is processed.