The Cure – Faith (Limited Remastered Japanese Edition)




No Cover available

Artist: The Cure
Year: 1981/2008
Genre: Alternative
Notes: Discogs
Add. Notes: Limited Remastered Japanese Edition
Watch Songs on: YouTube
Cover incl.: Yes
Encoder: FLAC
Bitrate: ~900 kBit/s (44.1 kHz/16 Bit/s)
Log & Cue incl.: Yes/Yes
Size: 284,1 MB
Password: “slam” (without ” “)


All Downloads/Hosters are compatible

Download 1
KatFile.com
Turbobit.net
FileFactory.com
Rapidgator.net
Download 2
KatFile.com
Turbobit.net
FileFactory.com
Rapidgator.net

Tracklist:

1 The Holy Hour 4:26
2 Primary 3:39
3 Other Voices 4:23
4 All Cats Are Grey 5:27
5 The Funeral Party 4:14
6 Doubt 3:11
7 The Drowning Man 4:49
8 Faith 6:43

EAC-Log, CUE-Sheed & NFO:

Click to open spoiler
Exact Audio Copy V0.99 prebeta 5 from 4. May 2009

EAC extraction logfile from 13. July 2010, 7:14

The Cure / Faith (RE)

Used drive : PIONEER DVD-RW DVR-111D Adapter: 1 ID: 0

Read mode : Secure
Utilize accurate stream : Yes
Defeat audio cache : Yes
Make use of C2 pointers : No

Read offset correction : 48
Overread into Lead-In and Lead-Out : No
Fill up missing offset samples with silence : Yes
Delete leading and trailing silent blocks : No
Null samples used in CRC calculations : Yes
Used interface : Native Win32 interface for Win NT & 2000

Used output format : User Defined Encoder
Selected bitrate : 1024 kBit/s
Quality : High
Add ID3 tag : No
Command line compressor : C:\Program Files\Exact Audio Copy\FLAC\FLAC.EXE
Additional command line options : -8 -V %s

TOC of the extracted CD

Track | Start | Length | Start sector | End sector
———————————————————
1 | 0:00.00 | 4:26.61 | 0 | 20010
2 | 4:26.61 | 3:39.30 | 20011 | 36465
3 | 8:06.16 | 4:23.46 | 36466 | 56236
4 | 12:29.62 | 5:27.49 | 56237 | 80810
5 | 17:57.36 | 4:14.27 | 80811 | 99887
6 | 22:11.63 | 3:11.28 | 99888 | 114240
7 | 25:23.16 | 4:49.61 | 114241 | 135976
8 | 30:13.02 | 6:43.69 | 135977 | 166270

Range status and errors

Selected range

Filename C:\Music\Faith.Japan.RE.wav

Peak level 98.7 %
Range quality 100.0 %
Test CRC EF4DFBDC
Copy CRC EF4DFBDC
Copy OK

No errors occurred

AccurateRip summary

Track 1 accurately ripped (confidence 27) [B1C856A7]
Track 2 accurately ripped (confidence 27) [5B716A53]
Track 3 accurately ripped (confidence 27) [B12990CD]
Track 4 accurately ripped (confidence 27) [020EE478]
Track 5 accurately ripped (confidence 27) [F9B6DF90]
Track 6 accurately ripped (confidence 27) [62D859E7]
Track 7 accurately ripped (confidence 27) [8C6C9E65]
Track 8 accurately ripped (confidence 27) [EBF6DC8B]

All tracks accurately ripped

End of status report

REM GENRE Alternative
REM DATE 2005
REM DISCID 6A08A808
REM COMMENT “ExactAudioCopy v0.99pb5”
PERFORMER “The Cure”
TITLE “Faith (RE)”
FILE “Faith.Japan.RE.flac” WAVE
TRACK 01 AUDIO
TITLE “The Holy Hour”
PERFORMER “The Cure”
FLAGS DCP
INDEX 01 00:00:00
TRACK 02 AUDIO
TITLE “Primary”
PERFORMER “The Cure”
FLAGS DCP
INDEX 01 04:26:61
TRACK 03 AUDIO
TITLE “Other Voices”
PERFORMER “The Cure”
FLAGS DCP
INDEX 01 08:06:16
TRACK 04 AUDIO
TITLE “All Cats Are Grey”
PERFORMER “The Cure”
FLAGS DCP
INDEX 01 12:29:62
TRACK 05 AUDIO
TITLE “The Funeral Party”
PERFORMER “The Cure”
FLAGS DCP
INDEX 01 17:57:36
TRACK 06 AUDIO
TITLE “Doubt”
PERFORMER “The Cure”
FLAGS DCP
INDEX 01 22:11:63
TRACK 07 AUDIO
TITLE “The Drowning Man”
PERFORMER “The Cure”
FLAGS DCP
INDEX 01 25:23:16
TRACK 08 AUDIO
TITLE “Faith”
PERFORMER “The Cure”
FLAGS DCP
INDEX 01 30:13:02


Leave a Reply

Your email address will not be published. Required fields are marked *

Enter the text from the image below
 

This site uses Akismet to reduce spam. Learn how your comment data is processed.