The Cure – Entreat




No Cover available

Artist: The Cure
Year: 1990
Genre: Rock
Notes: Discogs
Add. Notes:
Watch Songs on: YouTube
Cover incl.: Yes
Encoder: FLAC
Bitrate: ~900 kBit/s (44.1 kHz/16 Bit/s)
Log & Cue incl.: Yes/Yes
Size: 331,3 MB
Password: “slam” (without ” “)


All Downloads/Hosters are compatible

Download 1
KatFile.com
Turbobit.net
Rapidgator.net
FileFactory.com
Download 2
KatFile.com
Turbobit.net
Rapidgator.net
FileFactory.com

Tracklist:

1 Pictures Of You 7:09
2 Closedown 4:25
3 Last Dance 4:42
4 Fascination Street 5:17
5 Prayers For Rain 4:43
6 Disintegration 7:41
7 Homesick 6:52
8 Untitled 6:32

EAC-Log, CUE-Sheed & NFO:

Click to open spoiler
Exact Audio Copy V0.99 prebeta 5 from 4. May 2009

EAC extraction logfile from 28. August 2010, 2:30

The Cure / Entreat

Used drive : TSSTcorpCDDVDW TS-L633A Adapter: 0 ID: 1

Read mode : Secure
Utilize accurate stream : Yes
Defeat audio cache : Yes
Make use of C2 pointers : No

Read offset correction : 6
Overread into Lead-In and Lead-Out : No
Fill up missing offset samples with silence : Yes
Delete leading and trailing silent blocks : No
Null samples used in CRC calculations : Yes
Used interface : Native Win32 interface for Win NT & 2000

Used output format : User Defined Encoder
Selected bitrate : 1024 kBit/s
Quality : High
Add ID3 tag : No
Command line compressor : C:\Program Files\Exact Audio Copy\Flac\flac.exe
Additional command line options : -8 -V %s

TOC of the extracted CD

Track | Start | Length | Start sector | End sector
———————————————————
1 | 0:00.00 | 7:09.20 | 0 | 32194
2 | 7:09.20 | 4:25.05 | 32195 | 52074
3 | 11:34.25 | 4:42.45 | 52075 | 73269
4 | 16:16.70 | 5:17.22 | 73270 | 97066
5 | 21:34.17 | 4:43.48 | 97067 | 118339
6 | 26:17.65 | 7:41.65 | 118340 | 152979
7 | 33:59.55 | 6:52.12 | 152980 | 183891
8 | 40:51.67 | 6:32.45 | 183892 | 213336

Range status and errors

Selected range

Filename C:\music\Entreat.Aussie.wav

Peak level 100.0 %
Range quality 99.9 %
Test CRC CB992701
Copy CRC CB992701
Copy OK

No errors occurred

AccurateRip summary

Track 1 accurately ripped (confidence 3) [1FE153E0]
Track 2 accurately ripped (confidence 3) [CE42E3DA]
Track 3 accurately ripped (confidence 3) [7954460E]
Track 4 accurately ripped (confidence 3) [829DD9FF]
Track 5 accurately ripped (confidence 3) [8C53D0A3]
Track 6 accurately ripped (confidence 3) [71EA3C17]
Track 7 accurately ripped (confidence 3) [5256C2DF]
Track 8 accurately ripped (confidence 3) [55C30AD8]

All tracks accurately ripped

End of status report

REM GENRE Alternative
REM DATE 1990
REM DISCID 740B1C08
REM COMMENT “ExactAudioCopy v0.99pb5”
PERFORMER “The Cure”
TITLE “Entreat”
FILE “Entreat.Aussie.flac” WAVE
TRACK 01 AUDIO
TITLE “Pictures Of You”
PERFORMER “The Cure”
INDEX 01 00:00:00
TRACK 02 AUDIO
TITLE “Closedown”
PERFORMER “The Cure”
INDEX 01 07:09:20
TRACK 03 AUDIO
TITLE “Last Dance”
PERFORMER “The Cure”
INDEX 01 11:34:25
TRACK 04 AUDIO
TITLE “Fascination Street”
PERFORMER “The Cure”
INDEX 01 16:16:70
TRACK 05 AUDIO
TITLE “Prayers For Rain”
PERFORMER “The Cure”
INDEX 01 21:34:17
TRACK 06 AUDIO
TITLE “Disintegration”
PERFORMER “The Cure”
INDEX 01 26:17:65
TRACK 07 AUDIO
TITLE “Homesick”
PERFORMER “The Cure”
INDEX 01 33:59:55
TRACK 08 AUDIO
TITLE “Untitled”
PERFORMER “The Cure”
INDEX 01 40:51:67


Leave a Reply

Your email address will not be published. Required fields are marked *

Enter the text from the image below
 

This site uses Akismet to reduce spam. Learn how your comment data is processed.