The Cure – Concert – The Cure Live




No Cover available


Artist: The Cure
Year: 1984/1990
Genre: Rock
Notes: Discogs
Add. Notes:
Watch Songs on: YouTube
Cover incl.: Yes
Encoder: FLAC
Bitrate: ~800 kBit/s (44.1 kHz/16 Bit/s)
Log & Cue incl.: Yes/Yes
Size: 263,3 MB
Password: “slam” (without ” “)


All Downloads/Hosters are compatible

Download 1
KatFile.com
Turbobit.net
Rapidgator.net
FileFactory.com
Download 2
KatFile.com
Turbobit.net
Rapidgator.net
FileFactory.com

Tracklist:

1 Shake Dog Shake 4:15
2 Primary 3:30
3 Charlotte Sometimes 4:05
4 The Hanging Garden 4:07
5 Give Me It 2:45
6 The Walk 3:30
7 One Hundred Years 6:50
8 A Forest 6:45
9 10:15 Saturday Night 3:45
10 Killing An Arab 2:50

EAC-Log, CUE-Sheed & NFO:

Click to open spoiler
Exact Audio Copy V0.99 prebeta 5 from 4. May 2009

EAC extraction logfile from 4. July 2010, 16:06

The Cure / Concert

Used drive : PIONEER DVD-RW DVR-111D Adapter: 1 ID: 0

Read mode : Secure
Utilize accurate stream : Yes
Defeat audio cache : Yes
Make use of C2 pointers : No

Read offset correction : 48
Overread into Lead-In and Lead-Out : No
Fill up missing offset samples with silence : Yes
Delete leading and trailing silent blocks : No
Null samples used in CRC calculations : Yes
Used interface : Native Win32 interface for Win NT & 2000

Used output format : User Defined Encoder
Selected bitrate : 1024 kBit/s
Quality : High
Add ID3 tag : No
Command line compressor : C:\Program Files\Exact Audio Copy\FLAC\FLAC.EXE
Additional command line options : -8 -V %s

TOC of the extracted CD

Track | Start | Length | Start sector | End sector
———————————————————
1 | 0:00.32 | 4:14.63 | 32 | 19144
2 | 4:15.20 | 3:29.50 | 19145 | 34869
3 | 7:44.70 | 4:06.50 | 34870 | 53369
4 | 11:51.45 | 4:05.12 | 53370 | 71756
5 | 15:56.57 | 2:49.25 | 71757 | 84456
6 | 18:46.07 | 3:31.38 | 84457 | 100319
7 | 22:17.45 | 6:48.62 | 100320 | 130981
8 | 29:06.32 | 6:46.13 | 130982 | 161444
9 | 35:52.45 | 3:44.50 | 161445 | 178294
10 | 39:37.20 | 2:51.12 | 178295 | 191131

Range status and errors

Selected range

Filename C:\Music\Concert.wav

Peak level 100.0 %
Range quality 100.0 %
Test CRC 4462E7AE
Copy CRC 4462E7AE
Copy OK

No errors occurred

AccurateRip summary

Track 1 accurately ripped (confidence 29) [9A63B844]
Track 2 accurately ripped (confidence 29) [F0B441A2]
Track 3 accurately ripped (confidence 29) [D0EB9413]
Track 4 accurately ripped (confidence 29) [CC9D84A9]
Track 5 accurately ripped (confidence 29) [5B948429]
Track 6 accurately ripped (confidence 29) [05E66112]
Track 7 accurately ripped (confidence 29) [8B2FBA74]
Track 8 accurately ripped (confidence 29) [58BB13F1]
Track 9 accurately ripped (confidence 29) [EC0AE30B]
Track 10 accurately ripped (confidence 29) [5C5D88C6]

All tracks accurately ripped

End of status report

REM GENRE Alternative
REM DATE 1984
REM DISCID 9209F40A
REM COMMENT “ExactAudioCopy v0.99pb5”
PERFORMER “The Cure”
TITLE “Concert”
FILE “Concert.flac” WAVE
TRACK 01 AUDIO
TITLE “Shake Dog Shake”
PERFORMER “The Cure”
INDEX 00 00:00:00
INDEX 01 00:00:32
TRACK 02 AUDIO
TITLE “Primary”
PERFORMER “The Cure”
INDEX 00 04:14:70
INDEX 01 04:15:20
TRACK 03 AUDIO
TITLE “Charlotte Sometimes”
PERFORMER “The Cure”
INDEX 00 07:44:45
INDEX 01 07:44:70
TRACK 04 AUDIO
TITLE “The Hanging Garden”
PERFORMER “The Cure”
INDEX 00 11:51:20
INDEX 01 11:51:45
TRACK 05 AUDIO
TITLE “Give Me It”
PERFORMER “The Cure”
INDEX 00 15:56:32
INDEX 01 15:56:57
TRACK 06 AUDIO
TITLE “The Walk”
PERFORMER “The Cure”
INDEX 00 18:42:70
INDEX 01 18:46:07
TRACK 07 AUDIO
TITLE “One Hundred Years”
PERFORMER “The Cure”
INDEX 00 22:17:20
INDEX 01 22:17:45
TRACK 08 AUDIO
TITLE “A Forest”
PERFORMER “The Cure”
INDEX 00 29:06:07
INDEX 01 29:06:32
TRACK 09 AUDIO
TITLE “10:15 Saturday Night”
PERFORMER “The Cure”
INDEX 00 35:52:20
INDEX 01 35:52:45
TRACK 10 AUDIO
TITLE “Killing An Arab”
PERFORMER “The Cure”
INDEX 00 39:36:70
INDEX 01 39:37:20


0

Publication author

offline 4 days

Chaos

3
Comments: 4Publics: 3565Registration: 02-02-2019
Spread the Download

Leave a Reply

Your email address will not be published. Required fields are marked *

Enter the text from the image below
 

This site uses Akismet to reduce spam. Learn how your comment data is processed.