The Cure – Bloodflowers (Enhanced)




No Cover available

Artist: The Cure
Year: 2000
Genre: Rock
Notes: Discogs
Add. Notes: Enhanced
Watch Songs on: YouTube
Cover incl.: Yes
Encoder: FLAC
Bitrate: ~900 kBit/s (44.1 kHz/16 Bit/s)
Log & Cue incl.: Yes/Yes
Size: 450,42 MB
Password: “slam” (without ” “)


All Downloads/Hosters are compatible

Download 1
KatFile.com
Turbobit.net
Rapidgator.net
FileFactory.com
Download 2
KatFile.com
Turbobit.net
Rapidgator.net
FileFactory.com

Tracklist:

1 Out Of This World 6:43
2 Watching Me Fall 11:13
3 Where The Birds Always Sing 5:43
4 Maybe Someday 5:06
5 The Last Day Of Summer 5:36
6 There Is No If… 3:43
7 The Loudest Sound 5:09
8 39 7:18
9 Bloodflowers 7:28

+ PC Extra

EAC-Log, CUE-Sheed & NFO:

Click to open spoiler
Exact Audio Copy V0.99 prebeta 5 from 4. May 2009

EAC extraction logfile from 4. July 2010, 16:28

The Cure / Bloodflowers

Used drive : PIONEER DVD-RW DVR-111D Adapter: 1 ID: 0

Read mode : Secure
Utilize accurate stream : Yes
Defeat audio cache : Yes
Make use of C2 pointers : No

Read offset correction : 48
Overread into Lead-In and Lead-Out : No
Fill up missing offset samples with silence : Yes
Delete leading and trailing silent blocks : No
Null samples used in CRC calculations : Yes
Used interface : Native Win32 interface for Win NT & 2000

Used output format : User Defined Encoder
Selected bitrate : 1024 kBit/s
Quality : High
Add ID3 tag : No
Command line compressor : C:\Program Files\Exact Audio Copy\FLAC\FLAC.EXE
Additional command line options : -8 -V %s

TOC of the extracted CD

Track | Start | Length | Start sector | End sector
———————————————————
1 | 0:00.00 | 6:43.62 | 0 | 30286
2 | 6:43.62 | 11:14.25 | 30287 | 80861
3 | 17:58.12 | 5:43.60 | 80862 | 106646
4 | 23:41.72 | 5:08.00 | 106647 | 129746
5 | 28:49.72 | 5:35.63 | 129747 | 154934
6 | 34:25.60 | 3:42.67 | 154935 | 171651
7 | 38:08.52 | 5:10.10 | 171652 | 194911
8 | 43:18.62 | 7:19.23 | 194912 | 227859
9 | 50:38.10 | 7:28.24 | 227860 | 261483
10 | 60:38.34 | 0:57.70 | 272884 | 277228

Range status and errors

Selected range

Filename C:\Music\Bloodflowers.wav

Peak level 100.0 %
Range quality 100.0 %
Test CRC F95115E3
Copy CRC F95115E3
Copy OK

No errors occurred

AccurateRip summary

Track 1 accurately ripped (confidence 137) [435B81E7]
Track 2 accurately ripped (confidence 140) [61504C2C]
Track 3 accurately ripped (confidence 139) [F527455B]
Track 4 accurately ripped (confidence 139) [7D245B56]
Track 5 accurately ripped (confidence 140) [9FBBD670]
Track 6 accurately ripped (confidence 140) [8CA45D37]
Track 7 accurately ripped (confidence 140) [C4816765]
Track 8 accurately ripped (confidence 138) [B69E866A]
Track 9 accurately ripped (confidence 135) [7B0E9ED3]

All tracks accurately ripped

End of status report

REM GENRE Alternative
REM DATE 2000
REM DISCID 620E700A
REM COMMENT “ExactAudioCopy v0.99pb5”
PERFORMER “The Cure”
TITLE “Bloodflowers”
FILE “Bloodflowers.flac” WAVE
TRACK 01 AUDIO
TITLE “Out Of This World”
PERFORMER “The Cure”
INDEX 01 00:00:00
TRACK 02 AUDIO
TITLE “Watching Me Fall”
PERFORMER “The Cure”
INDEX 00 06:43:52
INDEX 01 06:43:62
TRACK 03 AUDIO
TITLE “Where The Birds Always Sing”
PERFORMER “The Cure”
INDEX 00 17:56:47
INDEX 01 17:58:12
TRACK 04 AUDIO
TITLE “Maybe Someday”
PERFORMER “The Cure”
INDEX 01 23:41:72
TRACK 05 AUDIO
TITLE “The Last Day Of Summer”
PERFORMER “The Cure”
INDEX 00 28:48:15
INDEX 01 28:49:72
TRACK 06 AUDIO
TITLE “There Is No If…”
PERFORMER “The Cure”
INDEX 01 34:25:60
TRACK 07 AUDIO
TITLE “The Loudest Sound”
PERFORMER “The Cure”
INDEX 01 38:08:52
TRACK 08 AUDIO
TITLE “39”
PERFORMER “The Cure”
INDEX 00 43:18:37
INDEX 01 43:18:62
TRACK 09 AUDIO
TITLE “Bloodflowers”
PERFORMER “The Cure”
INDEX 00 50:36:57
INDEX 01 50:38:10


Leave a Reply

Your email address will not be published. Required fields are marked *

This site uses Akismet to reduce spam. Learn how your comment data is processed.