The Cure – 4:13 Dream




No Cover available

Artist: The Cure
Year: 2008
Genre: Rock
Notes: Discogs
Add. Notes:
Watch Songs on: YouTube
Cover incl.: Yes
Encoder: FLAC
Bitrate: ~1000 kBit/s (44.1 kHz/16 Bit/s)
Log & Cue incl.: Yes/Yes
Size: 416,8 MB
Password: “slam” (without ” “)


All Downloads/Hosters are compatible

Download 1
KatFile.com
Turbobit.net
Rapidgator.net
FileFactory.com
Download 2
KatFile.com
Turbobit.net
Rapidgator.net
FileFactory.com

Tracklist:

1 Underneath The Stars 6:18
2 The Only One 3:57
3 The Reasons Why 4:35
4 Freakshow 2:30
5 Sirensong 2:23
6 The Real Snow White 4:43
7 The Hungry Ghost 4:30
8 Switch 3:45
9 The Perfect Boy 3:21
10 This. Here And Now. With You 4:07
11 Sleep When I'm Dead 3:52
12 The Scream 4:37
13 It's Over 4:17

EAC-Log, CUE-Sheed & NFO:

Click to open spoiler
Exact Audio Copy V0.99 prebeta 5 from 4. May 2009

EAC extraction logfile from 4. July 2010, 22:13

The Cure / 4:13 Dream

Used drive : PIONEER DVD-RW DVR-111D Adapter: 1 ID: 0

Read mode : Secure
Utilize accurate stream : Yes
Defeat audio cache : Yes
Make use of C2 pointers : No

Read offset correction : 48
Overread into Lead-In and Lead-Out : No
Fill up missing offset samples with silence : Yes
Delete leading and trailing silent blocks : No
Null samples used in CRC calculations : Yes
Used interface : Native Win32 interface for Win NT & 2000

Used output format : User Defined Encoder
Selected bitrate : 1024 kBit/s
Quality : High
Add ID3 tag : No
Command line compressor : C:\Program Files\Exact Audio Copy\FLAC\FLAC.EXE
Additional command line options : -8 -V %s

TOC of the extracted CD

Track | Start | Length | Start sector | End sector
———————————————————
1 | 0:00.00 | 6:17.49 | 0 | 28323
2 | 6:17.49 | 3:57.11 | 28324 | 46109
3 | 10:14.60 | 4:35.32 | 46110 | 66766
4 | 14:50.17 | 2:30.30 | 66767 | 78046
5 | 17:20.47 | 2:22.38 | 78047 | 88734
6 | 19:43.10 | 4:43.31 | 88735 | 109990
7 | 24:26.41 | 4:29.43 | 109991 | 130208
8 | 28:56.09 | 3:44.36 | 130209 | 147044
9 | 32:40.45 | 3:21.34 | 147045 | 162153
10 | 36:02.04 | 4:06.49 | 162154 | 180652
11 | 40:08.53 | 3:51.49 | 180653 | 198026
12 | 44:00.27 | 4:36.44 | 198027 | 218770
13 | 48:36.71 | 4:16.63 | 218771 | 238033

Range status and errors

Selected range

Filename C:\Music\413.Dream.wav

Peak level 100.0 %
Range quality 100.0 %
Test CRC C5AEC1C2
Copy CRC C5AEC1C2
Copy OK

No errors occurred

AccurateRip summary

Track 1 accurately ripped (confidence 188) [68A73B95]
Track 2 accurately ripped (confidence 190) [B572AB62]
Track 3 accurately ripped (confidence 189) [3A83E53F]
Track 4 accurately ripped (confidence 190) [FD628484]
Track 5 accurately ripped (confidence 189) [48975A1C]
Track 6 accurately ripped (confidence 189) [3E47F2AD]
Track 7 accurately ripped (confidence 187) [BEF3347C]
Track 8 accurately ripped (confidence 189) [5F57C646]
Track 9 accurately ripped (confidence 190) [7C3268E1]
Track 10 accurately ripped (confidence 188) [9164F1CC]
Track 11 accurately ripped (confidence 188) [5E546DAB]
Track 12 accurately ripped (confidence 189) [57FCDA65]
Track 13 accurately ripped (confidence 183) [89ECA827]

All tracks accurately ripped

End of status report

REM GENRE Alternative
REM DATE 2008
REM DISCID B90C650D
REM COMMENT “ExactAudioCopy v0.99pb5”
PERFORMER “The Cure”
TITLE “4:13 Dream”
FILE “413.Dream.flac” WAVE
TRACK 01 AUDIO
TITLE “Underneath The Stars”
PERFORMER “The Cure”
INDEX 01 00:00:00
TRACK 02 AUDIO
TITLE “The Only One”
PERFORMER “The Cure”
INDEX 00 06:16:44
INDEX 01 06:17:49
TRACK 03 AUDIO
TITLE “The Reasons Why”
PERFORMER “The Cure”
INDEX 00 10:13:01
INDEX 01 10:14:60
TRACK 04 AUDIO
TITLE “Freakshow”
PERFORMER “The Cure”
INDEX 00 14:50:06
INDEX 01 14:50:17
TRACK 05 AUDIO
TITLE “Sirensong”
PERFORMER “The Cure”
INDEX 00 17:18:41
INDEX 01 17:20:47
TRACK 06 AUDIO
TITLE “The Real Snow White”
PERFORMER “The Cure”
INDEX 00 19:43:05
INDEX 01 19:43:10
TRACK 07 AUDIO
TITLE “The Hungry Ghost”
PERFORMER “The Cure”
INDEX 00 24:25:06
INDEX 01 24:26:41
TRACK 08 AUDIO
TITLE “Switch”
PERFORMER “The Cure”
INDEX 00 28:55:74
INDEX 01 28:56:09
TRACK 09 AUDIO
TITLE “The Perfect Boy”
PERFORMER “The Cure”
INDEX 00 32:38:10
INDEX 01 32:40:45
TRACK 10 AUDIO
TITLE “This. Here And Now. With You”
PERFORMER “The Cure”
INDEX 00 36:01:57
INDEX 01 36:02:04
TRACK 11 AUDIO
TITLE “Sleep When I’m Dead”
PERFORMER “The Cure”
INDEX 00 40:08:29
INDEX 01 40:08:53
TRACK 12 AUDIO
TITLE “The Scream”
PERFORMER “The Cure”
INDEX 00 43:59:50
INDEX 01 44:00:27
TRACK 13 AUDIO
TITLE “It’s Over”
PERFORMER “The Cure”
INDEX 00 48:35:62
INDEX 01 48:36:71


Leave a Reply

Your email address will not be published. Required fields are marked *

Enter the text from the image below
 

This site uses Akismet to reduce spam. Learn how your comment data is processed.