The Cranberries – In the End




Artist: The Cranberries
Year: 2019
Genre: Alternative
Notes: Discogs
Add. Notes:
Cover incl.: No
Encoder: FLAC
Bitrate: ~1750 kBit/s (44.1 kHz/24 Bit/s)
Log & Cue incl.: No, but seperate Tracks
Size: 511,92 MB
Password: “slam” (without ” “)


All Downloads/Hosters are compatible

Download 1
Turbobit.net
Rapidgator.net
KatFile.com
UploadRar.com
Download 2
Turbobit.net
Rapidgator.net
KatFile.com
UploadRar.com

Tracklist:

1 - All Over Now - 4:17
2 - Lost - 3:59
3 - Wake Me When It's Over - 4:11
4 - A Place I Know - 4:26
5 - Catch Me If You Can - 4:38
6 - Got It - 4:02
7 - Illusion - 4:07
8 - Crazy Heart - 3:25
9 - Summer Song - 3:34
10 - The Pressure - 3:21
11 - In The End - 2:58

EAC-Log, CUE-Sheed & NFO:

Click to open spoiler
foobar2000 1.3.16 / Dynamic Range Meter 1.1.1
log date: 2019-04-25 08:44:28

——————————————————————————–
Analyzed: The Cranberries / In the End
——————————————————————————–

DR Peak RMS Duration Track
——————————————————————————–
DR6 -1.02 dB -7.70 dB 4:16 01-All Over Now
DR5 -1.02 dB -8.50 dB 4:00 02-Lost
DR5 -1.02 dB -7.68 dB 4:12 03-Wake Me When It’s Over
DR6 -1.02 dB -8.62 dB 4:26 04-A Place I Know
DR5 -1.02 dB -8.16 dB 4:38 05-Catch Me If You Can
DR5 -1.02 dB -7.55 dB 4:02 06-Got It
DR5 -1.02 dB -8.07 dB 4:07 07-Illusion
DR5 -1.02 dB -7.34 dB 3:25 08-Crazy Heart
DR5 -1.02 dB -7.51 dB 3:34 09-Summer Song
DR5 -1.02 dB -7.67 dB 3:22 10-The Pressure
DR6 -1.02 dB -8.94 dB 2:57 11-In the End
——————————————————————————–

Number of tracks: 11
Official DR value: DR5

Samplerate: 44100 Hz
Channels: 2
Bits per sample: 24
Bitrate: 1609 kbps
Codec: FLAC
================================================================================


Leave a Reply

Your email address will not be published. Required fields are marked *

This site uses Akismet to reduce spam. Learn how your comment data is processed.