The Coathangers – The Devil You Know




Artist: The Coathangers
Year: 2019
Genre: Punk
Notes: Discogs
Add. Notes:
Cover incl.: Yes
Encoder: FLAC
Bitrate: ~900 kBit/s (44.1 kHz/16 Bit/s)
Log & Cue incl.: Yes
Size: 190,25 MB
Password: “slam” (without ” “)


All Downloads/Hosters are compatible

Download 1
Turbobit.net
Rapidgator.net
UploadEver.com
KatFile.com
UsersDrive.com
Download 2
Turbobit.net
Rapidgator.net
UploadEver.com
KatFile.com
UsersDrive.com
Download 3
Turbobit.net
Rapidgator.net
UploadEver.com
KatFile.com
UsersDrive.com

Tracklist:

1. Bimbo. 
2. 5 Farms. 
3. Crimson Telephone. 
4. Hey Buddy. 
5. Step Back. 
6. Stranger Danger. 
7. F The NRA. 
8. Memories. 
9. Last Call. 
10. Stasher. 
11. Lithium

EAC-Log, CUE-Sheed & NFO:

Click to open spoiler
Exact Audio Copy V1.3 from 2. September 2016

EAC extraction logfile from 15. May 2019, 11:40

The Coathangers / The Devil You Know

Used drive : ASUS BC-12B1ST b Adapter: 1 ID: 0

Read mode : Secure
Utilize accurate stream : Yes
Defeat audio cache : Yes
Make use of C2 pointers : No

Read offset correction : 6
Overread into Lead-In and Lead-Out : No
Fill up missing offset samples with silence : Yes
Delete leading and trailing silent blocks : No
Null samples used in CRC calculations : Yes
Used interface : Native Win32 interface for Win NT & 2000
Gap handling : Appended to previous track

Used output format : User Defined Encoder
Selected bitrate : 1024 kBit/s
Quality : High
Add ID3 tag : No
Command line compressor : C:\Program Files (x86)\Exact Audio Copy\Flac\flac.exe
Additional command line options : -8 -e -p -V -T “ARTIST=%artist%” -T “TITLE=%title%” -T “ALBUM=%albumtitle%” -T “DATE=%year%” -T “TRACKNUMBER=%tracknr%” -T “GENRE=%genre%” -T “PERFORMER=%albuminterpret%” -T “COMPOSER=%composer%” %haslyrics%–tag-from-file=LYRICS=”%lyricsfile%”%haslyrics% -T “ALBUMARTIST=%albumartist%” -T “DISCNUMBER=%cdnumber%” -T “TOTALDISCS=%totalcds%” -T “TOTALTRACKS=%numtracks%” -T “COMMENT=%comment%” %source% -o %dest%

TOC of the extracted CD

Track | Start | Length | Start sector | End sector
———————————————————
1 | 0:00.00 | 2:48.07 | 0 | 12606
2 | 2:48.07 | 2:31.33 | 12607 | 23964
3 | 5:19.40 | 3:09.60 | 23965 | 38199
4 | 8:29.25 | 2:56.57 | 38200 | 51456
5 | 11:26.07 | 2:38.67 | 51457 | 63373
6 | 14:04.74 | 2:45.29 | 63374 | 75777
7 | 16:50.28 | 2:35.25 | 75778 | 87427
8 | 19:25.53 | 2:48.07 | 87428 | 100034
9 | 22:13.60 | 3:21.44 | 100035 | 115153
10 | 25:35.29 | 2:16.31 | 115154 | 125384
11 | 27:51.60 | 3:27.00 | 125385 | 140909

Track 1

Filename E:\rips\The Coathangers – The Devil You Know (2019) [FLAC]\01 – Bimbo.wav

Pre-gap length 0:00:02.00

Peak level 100.0 %
Extraction speed 4.2 X
Track quality 100.0 %
Test CRC 0A56B1D5
Copy CRC 0A56B1D5
Accurately ripped (confidence 4) [360C4C96] (AR v2)
Copy OK

Track 2

Filename E:\rips\The Coathangers – The Devil You Know (2019) [FLAC]\02 – 5 Farms.wav

Peak level 100.0 %
Extraction speed 4.3 X
Track quality 100.0 %
Test CRC 38227428
Copy CRC 38227428
Accurately ripped (confidence 4) [1434293A] (AR v2)
Copy OK

Track 3

Filename E:\rips\The Coathangers – The Devil You Know (2019) [FLAC]\03 – Crimson Telephone.wav

Peak level 100.0 %
Extraction speed 4.9 X
Track quality 100.0 %
Test CRC 4202DE4D
Copy CRC 4202DE4D
Accurately ripped (confidence 4) [4079545A] (AR v2)
Copy OK

Track 4

Filename E:\rips\The Coathangers – The Devil You Know (2019) [FLAC]\04 – Hey Buddy.wav

Peak level 100.0 %
Extraction speed 5.1 X
Track quality 100.0 %
Test CRC CBD27AC7
Copy CRC CBD27AC7
Accurately ripped (confidence 4) [6BD40FE0] (AR v2)
Copy OK

Track 5

Filename E:\rips\The Coathangers – The Devil You Know (2019) [FLAC]\05 – Step Back.wav

Peak level 92.1 %
Extraction speed 5.3 X
Track quality 100.0 %
Test CRC D6302058
Copy CRC D6302058
Accurately ripped (confidence 4) [AE1B924F] (AR v2)
Copy OK

Track 6

Filename E:\rips\The Coathangers – The Devil You Know (2019) [FLAC]\06 – Stranger Danger.wav

Peak level 100.0 %
Extraction speed 5.5 X
Track quality 100.0 %
Test CRC 51D9E1B8
Copy CRC 51D9E1B8
Accurately ripped (confidence 4) [A112F8C2] (AR v2)
Copy OK

Track 7

Filename E:\rips\The Coathangers – The Devil You Know (2019) [FLAC]\07 – F the NRA.wav

Peak level 100.0 %
Extraction speed 4.4 X
Track quality 99.9 %
Test CRC 791935CE
Copy CRC 791935CE
Accurately ripped (confidence 3) [648FC609] (AR v2)
Copy OK

Track 8

Filename E:\rips\The Coathangers – The Devil You Know (2019) [FLAC]\08 – Memories.wav

Peak level 89.0 %
Extraction speed 6.0 X
Track quality 100.0 %
Test CRC 7EC760F6
Copy CRC 7EC760F6
Accurately ripped (confidence 4) [9DCD5348] (AR v2)
Copy OK

Track 9

Filename E:\rips\The Coathangers – The Devil You Know (2019) [FLAC]\09 – Last Call.wav

Peak level 100.0 %
Extraction speed 6.4 X
Track quality 100.0 %
Test CRC 4B3EF25F
Copy CRC 4B3EF25F
Accurately ripped (confidence 4) [6ADE0538] (AR v2)
Copy OK

Track 10

Filename E:\rips\The Coathangers – The Devil You Know (2019) [FLAC]\10 – Stasher.wav

Peak level 98.5 %
Extraction speed 4.6 X
Track quality 99.9 %
Test CRC 89A08FF0
Copy CRC 89A08FF0
Accurately ripped (confidence 4) [60DA0EB6] (AR v2)
Copy OK

Track 11

Filename E:\rips\The Coathangers – The Devil You Know (2019) [FLAC]\11 – Lithium.wav

Peak level 88.6 %
Extraction speed 6.8 X
Track quality 100.0 %
Test CRC E07852A1
Copy CRC E07852A1
Accurately ripped (confidence 4) [0482C26E] (AR v2)
Copy OK

All tracks accurately ripped

No errors occurred

End of status report

—- CUETools DB Plugin V2.1.6

[CTDB TOCID: KFmeniBYTACfRWxSqvIcgLwQFao-] found
Submit result: KFmeniBYTACfRWxSqvIcgLwQFao- has been confirmed
Track | CTDB Status
1 | (5/5) Accurately ripped
2 | (5/5) Accurately ripped
3 | (5/5) Accurately ripped
4 | (5/5) Accurately ripped
5 | (5/5) Accurately ripped
6 | (5/5) Accurately ripped
7 | (5/5) Accurately ripped
8 | (5/5) Accurately ripped
9 | (5/5) Accurately ripped
10 | (5/5) Accurately ripped
11 | (5/5) Accurately ripped

==== Log checksum 51C43EB95185B4720BB5F7DA646D294C705F10A7419160F777510F17D4A852D9 ====

REM GENRE “Punk Rock”
REM DATE 2019
REM DISCID 7F07560B
REM COMMENT “ExactAudioCopy v1.3”
PERFORMER “The Coathangers”
TITLE “The Devil You Know”
REM COMPOSER “”
FILE “01 – Bimbo.wav” WAVE
TRACK 01 AUDIO
TITLE “Bimbo”
PERFORMER “The Coathangers”
REM COMPOSER “”
INDEX 01 00:00:00
FILE “02 – 5 Farms.wav” WAVE
TRACK 02 AUDIO
TITLE “5 Farms”
PERFORMER “The Coathangers”
REM COMPOSER “”
INDEX 01 00:00:00
FILE “03 – Crimson Telephone.wav” WAVE
TRACK 03 AUDIO
TITLE “Crimson Telephone”
PERFORMER “The Coathangers”
REM COMPOSER “”
INDEX 01 00:00:00
FILE “04 – Hey Buddy.wav” WAVE
TRACK 04 AUDIO
TITLE “Hey Buddy”
PERFORMER “The Coathangers”
REM COMPOSER “”
INDEX 01 00:00:00
FILE “05 – Step Back.wav” WAVE
TRACK 05 AUDIO
TITLE “Step Back”
PERFORMER “The Coathangers”
REM COMPOSER “”
INDEX 01 00:00:00
FILE “06 – Stranger Danger.wav” WAVE
TRACK 06 AUDIO
TITLE “Stranger Danger”
PERFORMER “The Coathangers”
REM COMPOSER “”
INDEX 01 00:00:00
FILE “07 – F the NRA.wav” WAVE
TRACK 07 AUDIO
TITLE “F the NRA”
PERFORMER “The Coathangers”
REM COMPOSER “”
INDEX 01 00:00:00
FILE “08 – Memories.wav” WAVE
TRACK 08 AUDIO
TITLE “Memories”
PERFORMER “The Coathangers”
REM COMPOSER “”
INDEX 01 00:00:00
FILE “09 – Last Call.wav” WAVE
TRACK 09 AUDIO
TITLE “Last Call”
PERFORMER “The Coathangers”
REM COMPOSER “”
INDEX 01 00:00:00
FILE “10 – Stasher.wav” WAVE
TRACK 10 AUDIO
TITLE “Stasher”
PERFORMER “The Coathangers”
REM COMPOSER “”
INDEX 01 00:00:00
FILE “11 – Lithium.wav” WAVE
TRACK 11 AUDIO
TITLE “Lithium”
PERFORMER “The Coathangers”
REM COMPOSER “”
INDEX 01 00:00:00


Leave a Reply

Your email address will not be published. Required fields are marked *

Enter the text from the image below
 

This site uses Akismet to reduce spam. Learn how your comment data is processed.