The Clash – The Singles




Artist: The Clash
Year: 1991
Genre: Punk
Notes: Discogs
Add. Notes:
Cover incl.: Yes
Encoder: FLAC
Bitrate: ~900 kBit/s (44.1 kHz/16 Bit/s)
Log & Cue incl.: Yes
Size: 406,61 MB
Password: “slam” (without ” “)


All Downloads/Hosters are compatible

Download 1
Turbobit.net
Rapidgator.net
UploadEver.com
JustUpload.io
UsersDrive.com
Download 2
Turbobit.net
Rapidgator.net
UploadEver.com
JustUpload.io
UsersDrive.com
Download 3
Turbobit.net
Rapidgator.net
UploadEver.com
JustUpload.io
UsersDrive.com

Tracklist:

1 - White Riot - 2:00
2 - Remote Control - 3:01
3 - Complete Control - 3:13
4 - Clash City Rockers - 3:48
5 - (White Man) In Hammersmith Palais - 4:02
6 - Tommy Gun - 3:17
7 - English Civil War - 2:38
8 - I Fought The Law - 2:40
9 - London Calling - 3:21
10 - Train In Vain - 3:11
11 - Bankrobber - 4:33
12 - The Call Up - 5:25
13 - Hitsville UK - 4:22
14 - The Magnificent Seven - 4:30
15 - This Is Radio Clash - 4:11
16 - Know Your Rights - 3:38
17 - Rock The Casbah - 3:43
18 - Should I Stay Or Should I Go - 3:09

EAC-Log, CUE-Sheed & NFO:

Click to open spoiler
Exact Audio Copy V0.99 prebeta 4 from 23. January 2008

EAC extraction logfile from 14. May 2008, 22:48

The Clash / The Singles

Used drive : _NEC DVD_RW ND-3550A Adapter: 5 ID: 0

Read mode : Secure
Utilize accurate stream : Yes
Defeat audio cache : Yes
Make use of C2 pointers : No

Read offset correction : 48
Overread into Lead-In and Lead-Out : No
Fill up missing offset samples with silence : Yes
Delete leading and trailing silent blocks : No
Null samples used in CRC calculations : Yes
Used interface : Native Win32 interface for Win NT & 2000

Used output format : Internal WAV Routines
Sample format : 44.100 Hz; 16 Bit; Stereo

TOC of the extracted CD

Track | Start | Length | Start sector | End sector
———————————————————
1 | 0:00.00 | 1:59.02 | 0 | 8926
2 | 1:59.02 | 3:02.13 | 8927 | 22589
3 | 5:01.15 | 3:14.30 | 22590 | 37169
4 | 8:15.45 | 3:49.32 | 37170 | 54376
5 | 12:05.02 | 4:01.35 | 54377 | 72486
6 | 16:06.37 | 3:16.65 | 72487 | 87251
7 | 19:23.27 | 2:37.70 | 87252 | 99096
8 | 22:01.22 | 2:41.10 | 99097 | 111181
9 | 24:42.32 | 3:21.03 | 111182 | 126259
10 | 28:03.35 | 3:11.15 | 126260 | 140599
11 | 31:14.50 | 4:35.22 | 140600 | 161246
12 | 35:49.72 | 5:26.65 | 161247 | 185761
13 | 41:16.62 | 4:23.15 | 185762 | 205501
14 | 45:40.02 | 4:29.33 | 205502 | 225709
15 | 50:09.35 | 4:11.05 | 225710 | 244539
16 | 54:20.40 | 3:41.65 | 244540 | 261179
17 | 58:02.30 | 3:43.35 | 261180 | 277939
18 | 61:45.65 | 3:07.32 | 277940 | 291996

Range status and errors

Selected range

Filename D:\Downloads\The Clash-The Singles\The Clash – The Singles.wav

Peak level 99.9 %
Range quality 99.9 %
Copy CRC 1E997555
Copy OK

No errors occurred

AccurateRip summary

Track 1 accurately ripped (confidence 27) [56CBD57F]
Track 2 accurately ripped (confidence 26) [CE1E8265]
Track 3 accurately ripped (confidence 26) [CEC6F62A]
Track 4 accurately ripped (confidence 27) [5AA7CBDE]
Track 5 accurately ripped (confidence 27) [4125279D]
Track 6 accurately ripped (confidence 27) [FB5725F3]
Track 7 accurately ripped (confidence 27) [4114A98F]
Track 8 accurately ripped (confidence 26) [ED78211C]
Track 9 accurately ripped (confidence 27) [C9213D3E]
Track 10 accurately ripped (confidence 26) [2F5AC909]
Track 11 accurately ripped (confidence 26) [7EAB72AD]
Track 12 accurately ripped (confidence 27) [4514D02A]
Track 13 accurately ripped (confidence 25) [697A3482]
Track 14 accurately ripped (confidence 26) [49CB9800]
Track 15 accurately ripped (confidence 27) [CE667D61]
Track 16 cannot be verified as accurate (confidence 6) [83F29ECB], AccurateRip returned [DBEEECA8]
Track 17 not present in database
Track 18 cannot be verified as accurate (confidence 25) [D3501635], AccurateRip returned [8B355BBA]

15 track(s) accurately ripped
2 track(s) could not be verified as accurate
1 track(s) not present in the AccurateRip database

Some tracks could not be verified as accurate

End of status report

REM GENRE Rock/Pop
REM DATE 1999
REM DISCID FB0F3512
REM COMMENT “ExactAudioCopy v0.99pb4”
PERFORMER “The Clash”
TITLE “The Singles”
FILE “1991-The Clash – The Singles.ape” WAVE
TRACK 01 AUDIO
TITLE “White Riot”
PERFORMER “The Clash”
INDEX 01 00:00:00
TRACK 02 AUDIO
TITLE “Remote Control”
PERFORMER “The Clash”
INDEX 01 01:59:02
TRACK 03 AUDIO
TITLE “Complete Control”
PERFORMER “The Clash”
INDEX 01 05:01:15
TRACK 04 AUDIO
TITLE “Clash City Rockers”
PERFORMER “The Clash”
INDEX 01 08:15:45
TRACK 05 AUDIO
TITLE “(White Man) In Hammersmith Palais”
PERFORMER “The Clash”
INDEX 01 12:05:02
TRACK 06 AUDIO
TITLE “Tommy Gun”
PERFORMER “The Clash”
INDEX 01 16:06:37
TRACK 07 AUDIO
TITLE “English Civil War”
PERFORMER “The Clash”
INDEX 01 19:23:27
TRACK 08 AUDIO
TITLE “I Fought The Law”
PERFORMER “The Clash”
INDEX 01 22:01:22
TRACK 09 AUDIO
TITLE “London Calling”
PERFORMER “The Clash”
INDEX 01 24:42:32
TRACK 10 AUDIO
TITLE “Train In Vain”
PERFORMER “The Clash”
INDEX 01 28:03:35
TRACK 11 AUDIO
TITLE “Bankrobber”
PERFORMER “The Clash”
INDEX 01 31:14:50
TRACK 12 AUDIO
TITLE “The Call Up”
PERFORMER “The Clash”
INDEX 01 35:49:72
TRACK 13 AUDIO
TITLE “Hitsville UK”
PERFORMER “The Clash”
INDEX 01 41:16:62
TRACK 14 AUDIO
TITLE “The Magnificent Seven”
PERFORMER “The Clash”
INDEX 01 45:40:02
TRACK 15 AUDIO
TITLE “This Is Radio Clash”
PERFORMER “The Clash”
INDEX 01 50:09:35
TRACK 16 AUDIO
TITLE “Know Your Rights”
PERFORMER “The Clash”
INDEX 01 54:20:40
TRACK 17 AUDIO
TITLE “Rock The Casbah”
PERFORMER “The Clash”
INDEX 01 58:02:30
TRACK 18 AUDIO
TITLE “Should I Stay Or Should I Go”
PERFORMER “The Clash”
INDEX 01 61:45:65

Leave a Reply

Your email address will not be published. Required fields are marked *

This site uses Akismet to reduce spam. Learn how your comment data is processed.