The Clash – The Clash (UK Edition)




Artist: The Clash
Year: 1977/1999
Genre: Punk
Notes: Discogs
Add. Notes:
Cover incl.: Yes
Encoder: FLAC
Bitrate: ~900 kBit/s (44.1 kHz/16 Bit/s)
Log & Cue incl.: Yes
Size: 223,07 MB
Password: “slam” (without ” “)


All Downloads/Hosters are compatible

Download 1
Turbobit.net
Rapidgator.net
UploadEver.com
JustUpload.io
UsersDrive.com
Download 2
Turbobit.net
Rapidgator.net
UploadEver.com
JustUpload.io
UsersDrive.com
Download 3
Turbobit.net
Rapidgator.net
UploadEver.com
JustUpload.io
UsersDrive.com

Tracklist:

1 - Janie Jones - 2:05
2 - Remote Control - 3:00
3 - I'm So Bored With The U.S.A. - 2:24
4 - White Riot - 1:55
5 - Hate & War - 2:05
6 - What's My Name - 1:40
7 - Deny - 3:03
8 - London's Burning - 2:10
9 - Career Opportunities - 1:51
10 - Cheat - 2:06
11 - Protex Blue - 1:45
12 - Police & Thieves - 6:00
13 - 48 Hours - 1:34
14 - Garageland - 3:13

EAC-Log, CUE-Sheed & NFO:

Click to open spoiler
Exact Audio Copy V0.99 prebeta 4 from 23. January 2008

EAC extraction logfile from 16. April 2008, 19:18

The Clash / The Clash

Used drive : _NEC DVD_RW ND-3550A Adapter: 5 ID: 0

Read mode : Secure
Utilize accurate stream : Yes
Defeat audio cache : Yes
Make use of C2 pointers : No

Read offset correction : 48
Overread into Lead-In and Lead-Out : No
Fill up missing offset samples with silence : Yes
Delete leading and trailing silent blocks : No
Null samples used in CRC calculations : Yes
Used interface : Native Win32 interface for Win NT & 2000

Used output format : Internal WAV Routines
Sample format : 44.100 Hz; 16 Bit; Stereo

TOC of the extracted CD

Track | Start | Length | Start sector | End sector
———————————————————
1 | 0:00.00 | 2:10.15 | 0 | 9764
2 | 2:10.15 | 3:05.21 | 9765 | 23660
3 | 5:15.36 | 2:26.59 | 23661 | 34669
4 | 7:42.20 | 1:58.57 | 34670 | 43576
5 | 9:41.02 | 2:08.71 | 43577 | 53247
6 | 11:49.73 | 1:43.37 | 53248 | 61009
7 | 13:33.35 | 3:08.46 | 61010 | 75155
8 | 16:42.06 | 2:14.27 | 75156 | 85232
9 | 18:56.33 | 1:56.35 | 85233 | 93967
10 | 20:52.68 | 2:08.30 | 93968 | 103597
11 | 23:01.23 | 1:48.73 | 103598 | 111770
12 | 24:50.21 | 1:38.32 | 111771 | 119152
13 | 26:28.53 | 6:05.24 | 119153 | 146551
14 | 32:34.02 | 3:12.44 | 146552 | 160995

Range status and errors

Selected range

Filename D:\Downloads\The Clash-The Clash\The Clash – The Clash.wav

Peak level 98.8 %
Range quality 100.0 %
Copy CRC A682988C
Copy OK

No errors occurred

AccurateRip summary

Track 1 not present in database
Track 2 not present in database
Track 3 not present in database
Track 4 not present in database
Track 5 not present in database
Track 6 not present in database
Track 7 not present in database
Track 8 not present in database
Track 9 not present in database
Track 10 not present in database
Track 11 not present in database
Track 12 not present in database
Track 13 not present in database
Track 14 not present in database

None of the tracks are present in the AccurateRip database

End of status report

REM GENRE “Punk Rock”
REM DATE 1977
REM DISCID A908620E
REM COMMENT “ExactAudioCopy v0.99pb4”
PERFORMER “The Clash”
TITLE “The Clash”
FILE “1977-The Clash – The Clash.ape” WAVE
TRACK 01 AUDIO
TITLE “Track01”
PERFORMER “The Clash”
FLAGS DCP
INDEX 01 00:00:00
TRACK 02 AUDIO
TITLE “Track02”
PERFORMER “The Clash”
FLAGS DCP
INDEX 00 02:08:15
INDEX 01 02:10:15
TRACK 03 AUDIO
TITLE “Track03”
PERFORMER “The Clash”
FLAGS DCP
INDEX 00 05:13:36
INDEX 01 05:15:36
TRACK 04 AUDIO
TITLE “Track04”
PERFORMER “The Clash”
FLAGS DCP
INDEX 00 07:40:20
INDEX 01 07:42:20
TRACK 05 AUDIO
TITLE “Track05”
PERFORMER “The Clash”
FLAGS DCP
INDEX 00 09:39:02
INDEX 01 09:41:02
TRACK 06 AUDIO
TITLE “Track06”
PERFORMER “The Clash”
FLAGS DCP
INDEX 00 11:47:73
INDEX 01 11:49:73
TRACK 07 AUDIO
TITLE “Track07”
PERFORMER “The Clash”
FLAGS DCP
INDEX 00 13:31:35
INDEX 01 13:33:35
TRACK 08 AUDIO
TITLE “Track08”
PERFORMER “The Clash”
FLAGS DCP
INDEX 00 16:40:06
INDEX 01 16:42:06
TRACK 09 AUDIO
TITLE “Track09”
PERFORMER “The Clash”
FLAGS DCP
INDEX 00 18:54:33
INDEX 01 18:56:33
TRACK 10 AUDIO
TITLE “Track10”
PERFORMER “The Clash”
FLAGS DCP
INDEX 00 20:50:68
INDEX 01 20:52:68
TRACK 11 AUDIO
TITLE “Track11”
PERFORMER “The Clash”
FLAGS DCP
INDEX 00 22:59:23
INDEX 01 23:01:23
TRACK 12 AUDIO
TITLE “Track12”
PERFORMER “The Clash”
FLAGS DCP
INDEX 00 24:48:21
INDEX 01 24:50:21
TRACK 13 AUDIO
TITLE “Track13”
PERFORMER “The Clash”
FLAGS DCP
INDEX 00 26:26:53
INDEX 01 26:28:53
TRACK 14 AUDIO
TITLE “Track14”
PERFORMER “The Clash”
FLAGS DCP
INDEX 00 32:32:02
INDEX 01 32:34:02

Leave a Reply

Your email address will not be published. Required fields are marked *

Enter the text from the image below
 

This site uses Akismet to reduce spam. Learn how your comment data is processed.