The Clash – Super Black Market Clash




Artist: The Clash
Year: 1993
Genre: Punk
Notes: Discogs
Add. Notes:
Encoder: FLAC
Bitrate: ~900 kBit/s (44.1 kHz/16 Bit/s)
Bin/Cue incl.: Yes
Size: 480,62 MB
Password: “slam” (without ” “)


http://www.share-online.biz/dl/XIUAEVRPSTC

https://rapidgator.net/file/d46b54bda8af6337ee069b641f051456

https://uploadbyte.com/n14d3lyzxhao

https://uploadever.com/ncocu4ycae8d

https://justupload.io/sejjwazwplpa

Tracklist:

01 - 1977 - 1:41
02 - Listen - 2:44
03 - Jail Guitar Doors - 3:05
04 - City Of The Dead - 2:24
05 - The Prisoner - 3:01
06 - Pressure Drop - 3:26
07 - 1-2 Crush On You - 3:00
08 - Groovy Times - 3:31
09 - Gates Of The West - 3:27
10 - Capital Radio Two - 3:20
11 - Time Is Tight - 4:06
12 - Justice Tonight / Kick It Over - 8:54
13 - Robber Dub - 4:42
14 - The Cool Out - 3:54
15 - Stop The World - 2:32
16 - The Magnificent Dance - 5:38
17 - Radio Clash - 4:10
18 - First Night Back In London - 3:00
19 - Long Time Jerk - 2:57
20 - Cool Confusion - 3:15
21 - Mustapha Dance - 4:26

EAC-Log, CUE-Sheed & NFO:

Click to open spoiler
Exact Audio Copy V0.99 prebeta 4 from 23. January 2008

EAC extraction logfile from 27. May 2008, 18:32

The Clash / Super Black Market Clash

Used drive : _NEC DVD_RW ND-3550A Adapter: 5 ID: 0

Read mode : Secure
Utilize accurate stream : Yes
Defeat audio cache : Yes
Make use of C2 pointers : No

Read offset correction : 48
Overread into Lead-In and Lead-Out : No
Fill up missing offset samples with silence : Yes
Delete leading and trailing silent blocks : No
Null samples used in CRC calculations : Yes
Used interface : Native Win32 interface for Win NT & 2000

Used output format : Internal WAV Routines
Sample format : 44.100 Hz; 16 Bit; Stereo

TOC of the extracted CD

Track | Start | Length | Start sector | End sector
———————————————————
1 | 0:00.00 | 1:40.30 | 0 | 7529
2 | 1:40.30 | 2:43.55 | 7530 | 19809
3 | 4:24.10 | 3:03.52 | 19810 | 33586
4 | 7:27.62 | 2:23.38 | 33587 | 44349
5 | 9:51.25 | 3:01.17 | 44350 | 57941
6 | 12:52.42 | 3:26.30 | 57942 | 73421
7 | 16:18.72 | 2:58.18 | 73422 | 86789
8 | 19:17.15 | 3:30.27 | 86790 | 102566
9 | 22:47.42 | 3:27.23 | 102567 | 118114
10 | 26:14.65 | 3:20.47 | 118115 | 133161
11 | 29:35.37 | 4:05.45 | 133162 | 151581
12 | 33:41.07 | 8:54.20 | 151582 | 191651
13 | 42:35.27 | 4:40.50 | 191652 | 212701
14 | 47:16.02 | 3:54.63 | 212702 | 230314
15 | 51:10.65 | 2:33.32 | 230315 | 241821
16 | 53:44.22 | 5:37.08 | 241822 | 267104
17 | 59:21.30 | 4:10.62 | 267105 | 285916
18 | 63:32.17 | 3:00.30 | 285917 | 299446
19 | 66:32.47 | 2:57.28 | 299447 | 312749
20 | 69:30.00 | 3:15.07 | 312750 | 327381
21 | 72:45.07 | 4:26.05 | 327382 | 347336

Range status and errors

Selected range

Filename D:\Downloads\The Clash\Clash – Super Black Market Clash.wav

Peak level 100.0 %
Range quality 100.0 %
Copy CRC F6639542
Copy OK

No errors occurred

AccurateRip summary

Track 1 accurately ripped (confidence 4) [7B490160]
Track 2 accurately ripped (confidence 4) [17BA620A]
Track 3 accurately ripped (confidence 4) [35B9EB4E]
Track 4 accurately ripped (confidence 4) [AE42562F]
Track 5 accurately ripped (confidence 4) [EB401A2C]
Track 6 accurately ripped (confidence 4) [EB0BAB81]
Track 7 accurately ripped (confidence 4) [CB38299A]
Track 8 accurately ripped (confidence 4) [B516F67D]
Track 9 accurately ripped (confidence 4) [31B1FC0B]
Track 10 accurately ripped (confidence 4) [3D3FB3EB]
Track 11 accurately ripped (confidence 4) [2D49AF6E]
Track 12 accurately ripped (confidence 4) [8A436134]
Track 13 accurately ripped (confidence 4) [C2CB2CA7]
Track 14 accurately ripped (confidence 4) [D8FB25F1]
Track 15 accurately ripped (confidence 4) [D92C73C9]
Track 16 accurately ripped (confidence 4) [D56F465F]
Track 17 accurately ripped (confidence 4) [7ECBD451]
Track 18 accurately ripped (confidence 4) [C6B3EE39]
Track 19 accurately ripped (confidence 4) [E09B3AC4]
Track 20 accurately ripped (confidence 4) [7F0B414F]
Track 21 accurately ripped (confidence 4) [3F0191DE]

All tracks accurately ripped

End of status report

REM GENRE Punk
REM DATE 1994
REM DISCID 49121715
REM COMMENT “ExactAudioCopy v0.99pb4”
PERFORMER “The Clash”
TITLE “Super Black Market Clash”
FILE “1993-The Clash – Super Black Market Clash.ape” WAVE
TRACK 01 AUDIO
TITLE “1977”
PERFORMER “The Clash”
INDEX 01 00:00:00
TRACK 02 AUDIO
TITLE “Listen”
PERFORMER “The Clash”
INDEX 00 01:40:17
INDEX 01 01:40:30
TRACK 03 AUDIO
TITLE “Jail Guitar Doors”
PERFORMER “The Clash”
INDEX 00 04:23:72
INDEX 01 04:24:10
TRACK 04 AUDIO
TITLE “City Of The Dead”
PERFORMER “The Clash”
INDEX 00 07:27:50
INDEX 01 07:27:62
TRACK 05 AUDIO
TITLE “The Prisoner”
PERFORMER “The Clash”
INDEX 00 09:51:12
INDEX 01 09:51:25
TRACK 06 AUDIO
TITLE “Pressure Drop”
PERFORMER “The Clash”
INDEX 00 12:52:30
INDEX 01 12:52:42
TRACK 07 AUDIO
TITLE “1-2 Crush On You”
PERFORMER “The Clash”
INDEX 00 16:18:60
INDEX 01 16:18:72
TRACK 08 AUDIO
TITLE “Groovy Times”
PERFORMER “The Clash”
INDEX 00 19:16:40
INDEX 01 19:17:15
TRACK 09 AUDIO
TITLE “Gates Of The West”
PERFORMER “The Clash”
INDEX 00 22:47:30
INDEX 01 22:47:42
TRACK 10 AUDIO
TITLE “Capital Radio Two”
PERFORMER “The Clash”
INDEX 00 26:14:52
INDEX 01 26:14:65
TRACK 11 AUDIO
TITLE “Time Is Tight”
PERFORMER “The Clash”
INDEX 00 29:35:25
INDEX 01 29:35:37
TRACK 12 AUDIO
TITLE “Justice Tonight/Kick It Over”
PERFORMER “The Clash”
INDEX 00 33:40:70
INDEX 01 33:41:07
TRACK 13 AUDIO
TITLE “Robber Dub”
PERFORMER “The Clash”
INDEX 01 42:35:27
TRACK 14 AUDIO
TITLE “The Cool Out”
PERFORMER “The Clash”
INDEX 00 47:15:65
INDEX 01 47:16:02
TRACK 15 AUDIO
TITLE “Stop The World”
PERFORMER “The Clash”
INDEX 00 51:10:52
INDEX 01 51:10:65
TRACK 16 AUDIO
TITLE “The Magnificent Dance”
PERFORMER “The Clash”
INDEX 00 53:44:07
INDEX 01 53:44:22
TRACK 17 AUDIO
TITLE “Radio Clash”
PERFORMER “The Clash”
INDEX 00 59:21:17
INDEX 01 59:21:30
TRACK 18 AUDIO
TITLE “First Night Back In London”
PERFORMER “The Clash”
INDEX 01 63:32:17
TRACK 19 AUDIO
TITLE “Long Time Jerk”
PERFORMER “The Clash”
INDEX 00 66:32:27
INDEX 01 66:32:47
TRACK 20 AUDIO
TITLE “Cool Confusion”
PERFORMER “The Clash”
INDEX 00 69:29:62
INDEX 01 69:30:00
TRACK 21 AUDIO
TITLE “Mustapha Dance”
PERFORMER “The Clash”
INDEX 00 72:44:70
INDEX 01 72:45:07

Leave a Reply

Your email address will not be published. Required fields are marked *

This site uses Akismet to reduce spam. Learn how your comment data is processed.