The Clash – Sandinista




Artist: The Clash
Year: 1980/189
Genre: Punk
Notes: Discogs
Add. Notes:
Encoder: FLAC
Bitrate: ~900 kBit/s (44.1 kHz/16 Bit/s)
Bin/Cue incl.: Yes
Size: 962,45 MB
Password: “slam” (without ” “)


http://www.share-online.biz/dl/UXZLYSRPDXR
http://www.share-online.biz/dl/R2OMYSRPQ1VT
https://rapidgator.net/file/8404e8cd542d51d8728e287675f9148d
https://rapidgator.net/file/e80ecac4108ddd321f14fb997db141b8
https://uploadbyte.com/ra8kxbza281o
https://uploadbyte.com/vcz448mhymd6
https://justupload.io/ug0k8557zh6j
https://justupload.io/uu7z3m3m1731
https://uploadever.com/81qoly5pxvfr
https://uploadever.com/vhza5bl4ixxl

Tracklist:

1.01 - The Magnificent Seven - 5:30
1.02 - Hitsville U.K. - 4:21
1.03 - Junco Partner - 4:52
1.04 - Ivan Meets G.I. Joe - 3:05
1.05 - The Leader - 1:41
1.06 - Something About England - 3:42
1.07 - Rebel Waltz - 3:25
1.08 - Look Here - 2:45
1.09 - The Crooked Beat - 5:28
1.10 - Somebody Got Murdered - 3:33
1.11 - One More Time - 3:32
1.12 - One More Dub - 3:35
1.13 - Lightning Strikes (Not Once But Twice) - 4:50
1.14 - Up In Heaven (Not Only Here) - 4:32
1.15 - Corner Soul - 2:42
1.16 - Lets Go Crazy - 4:24
1.17 - If Music Could Talk - 4:36
1.18 - The Sound Of Sinners - 4:00
2.01 - Police On My Back - 3:16
2.02 - Midnight Log - 2:09
2.03 - The Equaliser - 5:47
2.04 - The Call Up - 5:26
2.05 - Washington Bullets - 3:51
2.06 - Broadway - 5:47
2.07 - Lose This Skin - 5:07
2-08 - Charlie Don't Surf - 4:54
2.09 - Mensforth Hill - 3:42
2.10 - Junkie Slip - 2:48
2.11 - Kingston Advice - 2:36
2.12 - The Street Parade - 3:27
2.13 - Version City - 4:23
2.14 - Living In Fame - 4:35
2.15 - Silicone On Sapphire - 4:31
2.16 - Version Pardner - 5:22
2.17 - Career Opportunities - 2:30
2.18 - Shepherds Delight - 3:25

EAC-Log, CUE-Sheed & NFO:

Click to open spoiler
Exact Audio Copy V0.99 prebeta 4 from 23. January 2008

EAC extraction logfile from 27. May 2008, 17:15

The Clash / Sandinista! (Disc 1)

Used drive : _NEC DVD_RW ND-3550A Adapter: 5 ID: 0

Read mode : Secure
Utilize accurate stream : Yes
Defeat audio cache : Yes
Make use of C2 pointers : No

Read offset correction : 48
Overread into Lead-In and Lead-Out : No
Fill up missing offset samples with silence : Yes
Delete leading and trailing silent blocks : No
Null samples used in CRC calculations : Yes
Used interface : Native Win32 interface for Win NT & 2000

Used output format : Internal WAV Routines
Sample format : 44.100 Hz; 16 Bit; Stereo

TOC of the extracted CD

Track | Start | Length | Start sector | End sector
———————————————————
1 | 0:00.00 | 5:33.70 | 0 | 25044
2 | 5:33.70 | 4:21.62 | 25045 | 44681
3 | 9:55.57 | 4:52.18 | 44682 | 66599
4 | 14:48.00 | 3:05.37 | 66600 | 80511
5 | 17:53.37 | 1:42.08 | 80512 | 88169
6 | 19:35.45 | 3:42.52 | 88170 | 104871
7 | 23:18.22 | 3:26.33 | 104872 | 120354
8 | 26:44.55 | 2:45.05 | 120355 | 132734
9 | 29:29.60 | 5:28.25 | 132735 | 157359
10 | 34:58.10 | 3:34.22 | 157360 | 173431
11 | 38:32.32 | 3:31.68 | 173432 | 189324
12 | 42:04.25 | 3:36.42 | 189325 | 205566
13 | 45:40.67 | 4:50.68 | 205567 | 227384
14 | 50:31.60 | 4:32.12 | 227385 | 247796
15 | 55:03.72 | 2:42.45 | 247797 | 259991
16 | 57:46.42 | 4:24.23 | 259992 | 279814
17 | 62:10.65 | 4:36.60 | 279815 | 300574
18 | 66:47.50 | 4:02.07 | 300575 | 318731

Range status and errors

Selected range

Filename D:\Downloads\The Clash\The Clash – Sandinista! (Disc 1).wav

Peak level 100.0 %
Range quality 99.9 %
Copy CRC BB847D88
Copy OK

No errors occurred

AccurateRip summary

Track 1 cannot be verified as accurate (confidence 11) [C9ADA3B2], AccurateRip returned [BF0C29DA]
Track 2 cannot be verified as accurate (confidence 13) [FD6B7A8E], AccurateRip returned [C404A244]
Track 3 cannot be verified as accurate (confidence 12) [CA08EB21], AccurateRip returned [BA19DEA5]
Track 4 cannot be verified as accurate (confidence 12) [4E14FCC1], AccurateRip returned [F631716B]
Track 5 cannot be verified as accurate (confidence 12) [B5B92ACE], AccurateRip returned [404F33CA]
Track 6 cannot be verified as accurate (confidence 12) [8EC445D8], AccurateRip returned [5D9DA498]
Track 7 cannot be verified as accurate (confidence 11) [D7E5B84A], AccurateRip returned [5305D5D8]
Track 8 cannot be verified as accurate (confidence 11) [3295A10D], AccurateRip returned [8407E48B]
Track 9 cannot be verified as accurate (confidence 11) [78FAA76B], AccurateRip returned [AC531E5F]
Track 10 cannot be verified as accurate (confidence 11) [38D6449F], AccurateRip returned [DC57BE09]
Track 11 cannot be verified as accurate (confidence 11) [D9094820], AccurateRip returned [809117EA]
Track 12 cannot be verified as accurate (confidence 11) [D97A0996], AccurateRip returned [5EE09EF8]
Track 13 cannot be verified as accurate (confidence 10) [155316D0], AccurateRip returned [449728E9]
Track 14 cannot be verified as accurate (confidence 9) [4EF401B4], AccurateRip returned [2DF9C04F]
Track 15 cannot be verified as accurate (confidence 10) [08ABB128], AccurateRip returned [885B6989]
Track 16 cannot be verified as accurate (confidence 11) [482BAB74], AccurateRip returned [475C2B43]
Track 17 cannot be verified as accurate (confidence 11) [B6885470], AccurateRip returned [9BCE33C2]
Track 18 cannot be verified as accurate (confidence 11) [8CF92F3A], AccurateRip returned [F2DFD220]

No tracks could be verified as accurate
You may have a different pressing from the one(s) in the database

End of status report

Exact Audio Copy V0.99 prebeta 4 from 23. January 2008

EAC extraction logfile from 27. May 2008, 17:45

The Clash / Sandinista ! (CD2)

Used drive : _NEC DVD_RW ND-3550A Adapter: 5 ID: 0

Read mode : Secure
Utilize accurate stream : Yes
Defeat audio cache : Yes
Make use of C2 pointers : No

Read offset correction : 48
Overread into Lead-In and Lead-Out : No
Fill up missing offset samples with silence : Yes
Delete leading and trailing silent blocks : No
Null samples used in CRC calculations : Yes
Used interface : Native Win32 interface for Win NT & 2000

Used output format : Internal WAV Routines
Sample format : 44.100 Hz; 16 Bit; Stereo

TOC of the extracted CD

Track | Start | Length | Start sector | End sector
———————————————————
1 | 0:00.00 | 3:17.70 | 0 | 14844
2 | 3:17.70 | 2:10.22 | 14845 | 24616
3 | 5:28.17 | 5:46.60 | 24617 | 50626
4 | 11:15.02 | 5:28.00 | 50627 | 75226
5 | 16:43.02 | 3:51.60 | 75227 | 92611
6 | 20:34.62 | 5:49.28 | 92612 | 118814
7 | 26:24.15 | 5:08.37 | 118815 | 141951
8 | 31:32.52 | 4:54.18 | 141952 | 164019
9 | 36:26.70 | 3:42.21 | 164020 | 180690
10 | 40:09.16 | 2:48.61 | 180691 | 193351
11 | 42:58.02 | 2:37.14 | 193352 | 205140
12 | 45:35.16 | 3:28.29 | 205141 | 220769
13 | 49:03.45 | 4:22.70 | 220770 | 240489
14 | 53:26.40 | 4:52.72 | 240490 | 262461
15 | 58:19.37 | 4:14.20 | 262462 | 281531
16 | 62:33.57 | 5:23.20 | 281532 | 305776
17 | 67:57.02 | 2:30.25 | 305777 | 317051
18 | 70:27.27 | 3:29.19 | 317052 | 332745

Range status and errors

Selected range

Filename D:\Downloads\The Clash\The Clash – Sandinista ! (CD2).wav

Peak level 100.0 %
Range quality 100.0 %
Copy CRC 561739C4
Copy OK

No errors occurred

AccurateRip summary

Track 1 cannot be verified as accurate (confidence 11) [61D0857A], AccurateRip returned [F72CEF9A]
Track 2 cannot be verified as accurate (confidence 11) [6A586719], AccurateRip returned [AA8A964B]
Track 3 cannot be verified as accurate (confidence 11) [21BB81FC], AccurateRip returned [C3FBC6D4]
Track 4 cannot be verified as accurate (confidence 11) [06D70819], AccurateRip returned [2A8852E8]
Track 5 cannot be verified as accurate (confidence 11) [1D17ECAC], AccurateRip returned [3916AFD8]
Track 6 cannot be verified as accurate (confidence 11) [32FEE51B], AccurateRip returned [2A244BC2]
Track 7 cannot be verified as accurate (confidence 11) [761C8844], AccurateRip returned [EC146ADF]
Track 8 cannot be verified as accurate (confidence 10) [1D582C12], AccurateRip returned [D697BB83]
Track 9 cannot be verified as accurate (confidence 10) [2B7488E4], AccurateRip returned [2A3751C0]
Track 10 cannot be verified as accurate (confidence 10) [4CCA34C0], AccurateRip returned [250FFF49]
Track 11 cannot be verified as accurate (confidence 11) [15546C42], AccurateRip returned [C721D047]
Track 12 cannot be verified as accurate (confidence 11) [DAFE6E2E], AccurateRip returned [E2056D6B]
Track 13 cannot be verified as accurate (confidence 11) [A7EC4CC4], AccurateRip returned [52FDC45F]
Track 14 cannot be verified as accurate (confidence 10) [20393B21], AccurateRip returned [6CE1562B]
Track 15 cannot be verified as accurate (confidence 10) [CDD9267F], AccurateRip returned [2809678A]
Track 16 cannot be verified as accurate (confidence 10) [679777AB], AccurateRip returned [933225E0]
Track 17 cannot be verified as accurate (confidence 10) [D246765D], AccurateRip returned [7F77C5E9]
Track 18 cannot be verified as accurate (confidence 10) [9FF66FC1], AccurateRip returned [01A5949C]

No tracks could be verified as accurate
You may have a different pressing from the one(s) in the database

End of status report

REM GENRE Rock
REM DATE 1980
REM DISCID 0C115412
REM COMMENT “ExactAudioCopy v0.99pb4”
PERFORMER “The Clash”
TITLE “Sandinista ! (CD2)”
FILE “1980-The Clash – Sandinista ! (CD2).ape” WAVE
TRACK 01 AUDIO
TITLE “Police On My Back”
PERFORMER “The Clash”
INDEX 01 00:00:00
TRACK 02 AUDIO
TITLE “Midnight Log”
PERFORMER “The Clash”
INDEX 01 03:17:70
TRACK 03 AUDIO
TITLE “The Equaliser”
PERFORMER “The Clash”
INDEX 01 05:28:17
TRACK 04 AUDIO
TITLE “The Call Up”
PERFORMER “The Clash”
INDEX 01 11:15:02
TRACK 05 AUDIO
TITLE “Washington Bullets”
PERFORMER “The Clash”
INDEX 01 16:43:02
TRACK 06 AUDIO
TITLE “Broadway”
PERFORMER “The Clash”
INDEX 01 20:34:62
TRACK 07 AUDIO
TITLE “Lose This Skin”
PERFORMER “The Clash”
INDEX 01 26:24:15
TRACK 08 AUDIO
TITLE “Charlie Don’t Surf”
PERFORMER “The Clash”
INDEX 01 31:32:52
TRACK 09 AUDIO
TITLE “Mensforth Hill”
PERFORMER “The Clash”
INDEX 01 36:26:70
TRACK 10 AUDIO
TITLE “Junkie Slip”
PERFORMER “The Clash”
INDEX 01 40:09:16
TRACK 11 AUDIO
TITLE “Kingston Advice”
PERFORMER “The Clash”
INDEX 01 42:58:02
TRACK 12 AUDIO
TITLE “The Street Parade”
PERFORMER “The Clash”
INDEX 01 45:35:16
TRACK 13 AUDIO
TITLE “Version City”
PERFORMER “The Clash”
INDEX 01 49:03:45
TRACK 14 AUDIO
TITLE “Living In Fame”
PERFORMER “The Clash”
INDEX 01 53:26:40
TRACK 15 AUDIO
TITLE “Silicone On Sapphire”
PERFORMER “The Clash”
INDEX 01 58:19:37
TRACK 16 AUDIO
TITLE “Version Pardner”
PERFORMER “The Clash”
INDEX 01 62:33:57
TRACK 17 AUDIO
TITLE “Career Opportunities”
PERFORMER “The Clash”
INDEX 01 67:57:02
TRACK 18 AUDIO
TITLE “Shepherds Delight”
PERFORMER “The Clash”
INDEX 01 70:27:27

REM GENRE “Punk Rock”
REM DATE 1980
REM DISCID E2109912
REM COMMENT “ExactAudioCopy v0.99pb4”
PERFORMER “The Clash”
TITLE “Sandinista! (Disc 1)”
FILE “1980-The Clash – Sandinista! (Disc 1).ape” WAVE
TRACK 01 AUDIO
TITLE “The Magnificent Seven”
PERFORMER “The Clash”
INDEX 01 00:00:00
TRACK 02 AUDIO
TITLE “Hitsville U.K.”
PERFORMER “The Clash”
INDEX 01 05:33:70
TRACK 03 AUDIO
TITLE “Junco Partner”
PERFORMER “The Clash”
INDEX 01 09:55:57
TRACK 04 AUDIO
TITLE “Ivan Meets G.I. Joe”
PERFORMER “The Clash”
INDEX 01 14:48:00
TRACK 05 AUDIO
TITLE “The Leader”
PERFORMER “The Clash”
INDEX 01 17:53:37
TRACK 06 AUDIO
TITLE “Something About England”
PERFORMER “The Clash”
INDEX 01 19:35:45
TRACK 07 AUDIO
TITLE “Rebel Waltz”
PERFORMER “The Clash”
INDEX 01 23:18:22
TRACK 08 AUDIO
TITLE “Look Here”
PERFORMER “The Clash”
INDEX 01 26:44:55
TRACK 09 AUDIO
TITLE “The Crooked Beat”
PERFORMER “The Clash”
INDEX 01 29:29:60
TRACK 10 AUDIO
TITLE “Somebody Got Murdered”
PERFORMER “The Clash”
INDEX 01 34:58:10
TRACK 11 AUDIO
TITLE “One More Time”
PERFORMER “The Clash”
INDEX 01 38:32:32
TRACK 12 AUDIO
TITLE “One More Dub”
PERFORMER “The Clash”
INDEX 01 42:04:25
TRACK 13 AUDIO
TITLE “Lightning Strikes (Not Once But Twice)”
PERFORMER “The Clash”
INDEX 01 45:40:67
TRACK 14 AUDIO
TITLE “Up In Heaven (Not Only Here)”
PERFORMER “The Clash”
INDEX 01 50:31:60
TRACK 15 AUDIO
TITLE “Corner Soul”
PERFORMER “The Clash”
INDEX 01 55:03:72
TRACK 16 AUDIO
TITLE “Let’s Go Crazy”
PERFORMER “The Clash”
INDEX 01 57:46:42
TRACK 17 AUDIO
TITLE “If Music Could Talk”
PERFORMER “The Clash”
INDEX 01 62:10:65
TRACK 18 AUDIO
TITLE “The Sound Of Sinners”
PERFORMER “The Clash”
INDEX 01 66:47:50

Leave a Reply

Your email address will not be published. Required fields are marked *

This site uses Akismet to reduce spam. Learn how your comment data is processed.