The Clash – London Calling




No Cover available

Artist: The Clash
Year: 1979/1999
Genre: Punk
Notes: Discogs
Add. Notes:
Watch Songs on: YouTube
Cover incl.: Yes
Encoder: FLAC
Bitrate: ~1000 kBit/s (44.1 kHz/16 Bit/s)
Log & Cue incl.: Yes
Size: 446,6 MB
Password: “slam” (without ” “)


All Downloads/Hosters are compatible

Download 1
KatFile.com
Turbobit.net
FileFactory.com
Rapidgator.net
Download 2
KatFile.com
Turbobit.net
FileFactory.com
Rapidgator.net

Tracklist:

1 - London Calling - 3:18
2 - Brand New Cadillac - 2:09
3 - Jimmy Jazz - 3:55
4 - Hateful - 2:47
5 - Rudie Can't Fail - 3:27
6 - Spanish Bombs - 3:18
7 - The Right Profile - 3:53
8 - Lost In The Supermarket - 3:47
9 - Clampdown - 3:50
10 - The Guns Of Brixton - 3:12
11 - Wrong 'Em Boyo - 3:10
12 - Death Or Glory - 3:55
13 - Koka Kola - 1:49
14 - The Card Cheat - 3:50
15 - Lover's Rock - 4:01
16 - Four Horsemen - 3:00
17 - I'm Not Down - 3:00
18 - Revolution Rock - 5:36
19 - Train In Vain - 3:10

EAC-Log, CUE-Sheed & NFO:

Click to open spoiler
Exact Audio Copy V0.99 prebeta 4 from 23. January 2008

EAC extraction logfile from 4. May 2008, 12:45

The Clash / London Calling

Used drive : _NEC DVD_RW ND-3550A Adapter: 5 ID: 0

Read mode : Secure
Utilize accurate stream : Yes
Defeat audio cache : Yes
Make use of C2 pointers : No

Read offset correction : 48
Overread into Lead-In and Lead-Out : No
Fill up missing offset samples with silence : Yes
Delete leading and trailing silent blocks : No
Null samples used in CRC calculations : Yes
Used interface : Native Win32 interface for Win NT & 2000

Used output format : Internal WAV Routines
Sample format : 44.100 Hz; 16 Bit; Stereo

TOC of the extracted CD

Track | Start | Length | Start sector | End sector
———————————————————
1 | 0:00.00 | 3:19.62 | 0 | 14986
2 | 3:19.62 | 2:08.20 | 14987 | 24606
3 | 5:28.07 | 3:54.70 | 24607 | 42226
4 | 9:23.02 | 2:44.03 | 42227 | 54529
5 | 12:07.05 | 3:29.10 | 54530 | 70214
6 | 15:36.15 | 3:18.65 | 70215 | 85129
7 | 18:55.05 | 3:54.50 | 85130 | 102729
8 | 22:49.55 | 3:47.15 | 102730 | 119769
9 | 26:36.70 | 3:49.05 | 119770 | 136949
10 | 30:26.00 | 3:09.70 | 136950 | 151194
11 | 33:35.70 | 3:10.45 | 151195 | 165489
12 | 36:46.40 | 3:55.02 | 165490 | 183116
13 | 40:41.42 | 1:47.65 | 183117 | 191206
14 | 42:29.32 | 3:49.40 | 191207 | 208421
15 | 46:18.72 | 4:03.10 | 208422 | 226656
16 | 50:22.07 | 2:55.58 | 226657 | 239839
17 | 53:17.65 | 3:06.05 | 239840 | 253794
18 | 56:23.70 | 5:33.32 | 253795 | 278801
19 | 61:57.27 | 3:10.05 | 278802 | 293056

Range status and errors

Selected range

Filename D:\Downloads\The Clash-London Calling\The Clash – London Calling.wav

Peak level 98.8 %
Range quality 100.0 %
Copy CRC 285FBAA9
Copy OK

No errors occurred

AccurateRip summary

Track 1 accurately ripped (confidence 145) [559F6711]
Track 2 accurately ripped (confidence 142) [297E785C]
Track 3 accurately ripped (confidence 141) [1A5D73BE]
Track 4 accurately ripped (confidence 140) [D5D62EFB]
Track 5 accurately ripped (confidence 141) [AE3C3FED]
Track 6 accurately ripped (confidence 141) [29CB4BE5]
Track 7 accurately ripped (confidence 141) [DE5C656E]
Track 8 accurately ripped (confidence 139) [91CC1F79]
Track 9 accurately ripped (confidence 141) [B3D4B4C0]
Track 10 accurately ripped (confidence 142) [689AFD95]
Track 11 accurately ripped (confidence 138) [6305FC00]
Track 12 accurately ripped (confidence 141) [B549540C]
Track 13 accurately ripped (confidence 142) [314D407B]
Track 14 accurately ripped (confidence 141) [B3577233]
Track 15 accurately ripped (confidence 141) [47D14910]
Track 16 accurately ripped (confidence 137) [8FB09B21]
Track 17 accurately ripped (confidence 139) [C78E7A6D]
Track 18 accurately ripped (confidence 139) [BB7A0E2A]
Track 19 accurately ripped (confidence 66) [54A23C50]

All tracks accurately ripped

End of status report

REM GENRE “Punk Rock”
REM DATE 1979
REM DISCID 0B0F4313
REM COMMENT “ExactAudioCopy v0.99pb4”
PERFORMER “The Clash”
TITLE “London Calling”
FILE “1979-The Clash – London Calling.ape” WAVE
TRACK 01 AUDIO
TITLE “London Calling”
PERFORMER “The Clash”
INDEX 01 00:00:00
TRACK 02 AUDIO
TITLE “Brand New Cadillac”
PERFORMER “The Clash”
INDEX 01 03:19:62
TRACK 03 AUDIO
TITLE “Jimmy Jazz”
PERFORMER “The Clash”
INDEX 01 05:28:07
TRACK 04 AUDIO
TITLE “Hateful”
PERFORMER “The Clash”
INDEX 01 09:23:02
TRACK 05 AUDIO
TITLE “Rudie Can’t Fail”
PERFORMER “The Clash”
INDEX 01 12:07:05
TRACK 06 AUDIO
TITLE “Spanish Bombs”
PERFORMER “The Clash”
INDEX 01 15:36:15
TRACK 07 AUDIO
TITLE “The Right Profile”
PERFORMER “The Clash”
INDEX 01 18:55:05
TRACK 08 AUDIO
TITLE “Lost In The Supermarket”
PERFORMER “The Clash”
INDEX 01 22:49:55
TRACK 09 AUDIO
TITLE “Clampdown”
PERFORMER “The Clash”
INDEX 01 26:36:70
TRACK 10 AUDIO
TITLE “The Guns Of Brixton”
PERFORMER “The Clash”
INDEX 01 30:26:00
TRACK 11 AUDIO
TITLE “Wrong ‘Em Boyo”
PERFORMER “The Clash”
INDEX 01 33:35:70
TRACK 12 AUDIO
TITLE “Death Or Glory”
PERFORMER “The Clash”
INDEX 01 36:46:40
TRACK 13 AUDIO
TITLE “Koka Kola”
PERFORMER “The Clash”
INDEX 01 40:41:42
TRACK 14 AUDIO
TITLE “The Card Cheat”
PERFORMER “The Clash”
INDEX 01 42:29:32
TRACK 15 AUDIO
TITLE “Lover’s Rock”
PERFORMER “The Clash”
INDEX 01 46:18:72
TRACK 16 AUDIO
TITLE “Four Horsemen”
PERFORMER “The Clash”
INDEX 01 50:22:07
TRACK 17 AUDIO
TITLE “I’m Not Down”
PERFORMER “The Clash”
INDEX 01 53:17:65
TRACK 18 AUDIO
TITLE “Revolution Rock”
PERFORMER “The Clash”
INDEX 01 56:23:70
TRACK 19 AUDIO
TITLE “Train In Vain”
PERFORMER “The Clash”
INDEX 01 61:57:27


Leave a Reply

Your email address will not be published. Required fields are marked *

This site uses Akismet to reduce spam. Learn how your comment data is processed.