The Clash – Give ’em Enough Rope (Remastered)




Artist: The Clash
Year: 1978/1999
Genre: Punk
Notes: Discogs
Add. Notes: Remastered
Encoder: FLAC
Bitrate: ~900 kBit/s (44.1 kHz/16 Bit/s)
Bin/Cue incl.: Yes
Size: 245,08 MB
Password: “slam” (without ” “)


http://www.share-online.biz/dl/XXQ9EVRPZ37

https://rapidgator.net/file/048783ba2c46b4a58c45fa96799c657d

https://uploadbyte.com/cnkihygiv2cn

https://uploadever.com/cd7ilr7ybkyi

https://justupload.io/z1ubwoiuk8vt

Tracklist:

1 - Safe European Home - 3:49
2 - English Civil War - 2:35
3 - Tommy Gun - 3:15
4 - Julie's Been Working For The Drug Squad - 3:03
5 - Last Gang In Town - 5:12
6 - Guns On The Roof - 3:15
7 - Drug-Stabbing Time - 3:43
8 - Stay Free - 3:38
9 - Cheapskates - 3:24
10 - All The Young Punks (New Boots And Contracts) - 
4:55

EAC-Log, CUE-Sheed & NFO:

Click to open spoiler
Exact Audio Copy V0.99 prebeta 4 from 23. January 2008

EAC extraction logfile from 22. May 2008, 20:17

The Clash / Give ’em Enough Rope

Used drive : _NEC DVD_RW ND-3550A Adapter: 5 ID: 0

Read mode : Secure
Utilize accurate stream : Yes
Defeat audio cache : Yes
Make use of C2 pointers : No

Read offset correction : 48
Overread into Lead-In and Lead-Out : No
Fill up missing offset samples with silence : Yes
Delete leading and trailing silent blocks : No
Null samples used in CRC calculations : Yes
Used interface : Native Win32 interface for Win NT & 2000

Used output format : Internal WAV Routines
Sample format : 44.100 Hz; 16 Bit; Stereo

TOC of the extracted CD

Track | Start | Length | Start sector | End sector
———————————————————
1 | 0:00.00 | 3:50.15 | 0 | 17264
2 | 3:50.15 | 2:35.37 | 17265 | 28926
3 | 6:25.52 | 3:17.30 | 28927 | 43731
4 | 9:43.07 | 3:03.23 | 43732 | 57479
5 | 12:46.30 | 5:14.37 | 57480 | 81066
6 | 18:00.67 | 3:15.43 | 81067 | 95734
7 | 21:16.35 | 3:43.67 | 95735 | 112526
8 | 25:00.27 | 3:40.50 | 112527 | 129076
9 | 28:41.02 | 3:25.18 | 129077 | 144469
10 | 32:06.20 | 4:55.62 | 144470 | 166656

Range status and errors

Selected range

Filename D:\Downloads\The Clash -Give ’em Enough Rope\The Clash – Give ’em Enough Rope.wav

Peak level 98.8 %
Range quality 100.0 %
Copy CRC 5B7316F8
Copy OK

No errors occurred

AccurateRip summary

Track 1 accurately ripped (confidence 14) [7DE4187D]
Track 2 accurately ripped (confidence 14) [4BFC163B]
Track 3 accurately ripped (confidence 14) [0D58C3F4]
Track 4 accurately ripped (confidence 14) [29F6B6F6]
Track 5 accurately ripped (confidence 14) [64D99906]
Track 6 accurately ripped (confidence 14) [50406279]
Track 7 accurately ripped (confidence 14) [ED70469A]
Track 8 accurately ripped (confidence 14) [F6B1E1EB]
Track 9 accurately ripped (confidence 14) [7CF9E636]
Track 10 accurately ripped (confidence 14) [C25E937A]

All tracks accurately ripped

End of status report

REM GENRE Rock
REM DATE 1978
REM DISCID 8808AE0A
REM COMMENT “ExactAudioCopy v0.99pb4”
PERFORMER “The Clash ”
TITLE “Give ’em Enough Rope ”
FILE “1978-The Clash – Give ’em Enough Rope.ape” WAVE
TRACK 01 AUDIO
TITLE “Safe European Home”
PERFORMER “The Clash ”
INDEX 01 00:00:00
TRACK 02 AUDIO
TITLE “English Civil War”
PERFORMER “The Clash ”
INDEX 01 03:50:15
TRACK 03 AUDIO
TITLE “Tommy Gun”
PERFORMER “The Clash ”
INDEX 01 06:25:52
TRACK 04 AUDIO
TITLE “Julie’s Been Working for the Drug Squad”
PERFORMER “The Clash ”
INDEX 00 09:41:17
INDEX 01 09:43:07
TRACK 05 AUDIO
TITLE “Last Gang in Town”
PERFORMER “The Clash ”
INDEX 01 12:46:30
TRACK 06 AUDIO
TITLE “Guns on the Roof”
PERFORMER “The Clash ”
INDEX 00 17:59:07
INDEX 01 18:00:67
TRACK 07 AUDIO
TITLE “Drug-Stabbing Time”
PERFORMER “The Clash ”
INDEX 01 21:16:35
TRACK 08 AUDIO
TITLE “Stay Free”
PERFORMER “The Clash ”
INDEX 01 25:00:27
TRACK 09 AUDIO
TITLE “Cheapskates”
PERFORMER “The Clash ”
INDEX 00 28:39:05
INDEX 01 28:41:02
TRACK 10 AUDIO
TITLE “All the Young Punks (New Boots And Contracts)”
PERFORMER “The Clash ”
INDEX 01 32:06:20

Leave a Reply

Your email address will not be published. Required fields are marked *

This site uses Akismet to reduce spam. Learn how your comment data is processed.