The Clash – From Here to Eternity – Live




Artist: The Clash
Year: 1999
Genre: Punk
Notes: Discogs
Add. Notes:
Cover incl.: Yes
Encoder: FLAC
Bitrate: ~1000 kBit/s (44.1 kHz/16 Bit/s)
Log & Cue incl.: Yes
Size: 446,15 MB
Password: “slam” (without ” “)


All Downloads/Hosters are compatible

Download 1
Turbobit.net
Rapidgator.net
UploadByte.com
UploadEver.com
JustUpload.io
Download 2
Turbobit.net
Rapidgator.net
UploadByte.com
UploadEver.com
JustUpload.io
Download 3
Turbobit.net
Rapidgator.net
UploadByte.com
UploadEver.com
JustUpload.io

Tracklist:

1 - Complete Control - 3:45
2 - London's Burning - 2:03
3 - What's My Name - 1:43
4 - Clash City Rockers - 3:30
5 - Career Opportunities - 2:06
6 - (White Man) In Hammersmith Palais - 4:28
7 - Capital Radio - 2:58
8 - City Of The Dead - 2:47
9 - I Fought The Law - 2:34
10 - London Calling - 3:29
11 - Armagideon Time - 5:05
12 - Train In Vain - 4:43
13 - Guns Of Brixton - 3:35
14 - The Magnificent Seven - 6:09
15 - Know Your Rights - 3:57
16 - Should I Stay Or Should I Go - 2:58
17 - Straight To Hell - 7:24

EAC-Log, CUE-Sheed & NFO:

Click to open spoiler
Exact Audio Copy V0.99 prebeta 4 from 23. January 2008

EAC extraction logfile from 27. May 2008, 18:07

Clash / From Here to Eternity Live

Used drive : _NEC DVD_RW ND-3550A Adapter: 5 ID: 0

Read mode : Secure
Utilize accurate stream : Yes
Defeat audio cache : Yes
Make use of C2 pointers : No

Read offset correction : 48
Overread into Lead-In and Lead-Out : No
Fill up missing offset samples with silence : Yes
Delete leading and trailing silent blocks : No
Null samples used in CRC calculations : Yes
Used interface : Native Win32 interface for Win NT & 2000

Used output format : Internal WAV Routines
Sample format : 44.100 Hz; 16 Bit; Stereo

TOC of the extracted CD

Track | Start | Length | Start sector | End sector
———————————————————
1 | 0:00.00 | 3:45.70 | 0 | 16944
2 | 3:45.70 | 2:03.60 | 16945 | 26229
3 | 5:49.55 | 1:43.62 | 26230 | 34016
4 | 7:33.42 | 3:30.00 | 34017 | 49766
5 | 11:03.42 | 2:06.53 | 49767 | 59269
6 | 13:10.20 | 4:28.05 | 59270 | 79374
7 | 17:38.25 | 2:58.37 | 79375 | 92761
8 | 20:36.62 | 2:47.03 | 92762 | 105289
9 | 23:23.65 | 2:36.17 | 105290 | 117006
10 | 26:00.07 | 3:29.18 | 117007 | 132699
11 | 29:29.25 | 5:05.10 | 132700 | 155584
12 | 34:34.35 | 4:43.50 | 155585 | 176859
13 | 39:18.10 | 3:36.05 | 176860 | 193064
14 | 42:54.15 | 6:09.50 | 193065 | 220789
15 | 49:03.65 | 4:05.02 | 220790 | 239166
16 | 53:08.67 | 3:14.60 | 239167 | 253776
17 | 56:23.52 | 7:24.43 | 253777 | 287119

Range status and errors

Selected range

Filename D:\Downloads\The Clash\Clash – From Here to Eternity Live.wav

Suspicious position 0:58:34

Peak level 100.0 %
Range quality 99.9 %
Copy CRC 83779A8B
Copy finished

There were errors

AccurateRip summary

Track 1 cannot be verified as accurate (confidence 23) [77D71D2D], AccurateRip returned [12ADACBB]
Track 2 cannot be verified as accurate (confidence 25) [4AEC52FC], AccurateRip returned [5421AD8D]
Track 3 cannot be verified as accurate (confidence 25) [06701F59], AccurateRip returned [948CFAB1]
Track 4 cannot be verified as accurate (confidence 25) [97407027], AccurateRip returned [88ECAC84]
Track 5 cannot be verified as accurate (confidence 25) [A386D855], AccurateRip returned [E7E8F54A]
Track 6 cannot be verified as accurate (confidence 25) [96CF36AD], AccurateRip returned [530D2CE3]
Track 7 cannot be verified as accurate (confidence 24) [041863F7], AccurateRip returned [3C5F5A72]
Track 8 cannot be verified as accurate (confidence 24) [B88BF8C0], AccurateRip returned [DCF15671]
Track 9 cannot be verified as accurate (confidence 24) [588CD776], AccurateRip returned [ED053668]
Track 10 cannot be verified as accurate (confidence 26) [6A39B1FE], AccurateRip returned [9FCEF8E9]
Track 11 cannot be verified as accurate (confidence 25) [244B9A81], AccurateRip returned [9A594A95]
Track 12 cannot be verified as accurate (confidence 24) [04DE5D8A], AccurateRip returned [C56D182A]
Track 13 cannot be verified as accurate (confidence 25) [30B9F216], AccurateRip returned [617C6C1D]
Track 14 cannot be verified as accurate (confidence 25) [A6561C35], AccurateRip returned [8E99ABBB]
Track 15 cannot be verified as accurate (confidence 25) [61BEECDD], AccurateRip returned [367D79C3]
Track 16 cannot be verified as accurate (confidence 26) [46B3E737], AccurateRip returned [978E6092]
Track 17 cannot be verified as accurate (confidence 25) [AE091540], AccurateRip returned [8AE0BF53]

No tracks could be verified as accurate

End of status report

REM GENRE “Punk Rock”
REM DATE 1999
REM DISCID E60EF411
REM COMMENT “ExactAudioCopy v0.99pb4”
PERFORMER “The Clash”
TITLE “From Here to Eternity Live”
FILE “1999-The Clash – From Here to Eternity Live.ape” WAVE
TRACK 01 AUDIO
TITLE “Complete Control (Live) [13 Jun 81, NYC]”
PERFORMER “Clash”
INDEX 01 00:00:00
TRACK 02 AUDIO
TITLE “London’s Burning (Live) [30 Apr 78, Hackney, London]”
PERFORMER “Clash”
INDEX 01 03:45:70
TRACK 03 AUDIO
TITLE “What’s My Name (Live) [27 Jul 78, London]”
PERFORMER “Clash”
INDEX 01 05:49:55
TRACK 04 AUDIO
TITLE “Clash City Rockers (Live) [7 Sep 82, Boston]”
PERFORMER “Clash”
INDEX 01 07:33:42
TRACK 05 AUDIO
TITLE “Career Opportunities (Live) [13 Oct 82, Shea Stadium, NYC]”
PERFORMER “Clash”
INDEX 01 11:03:42
TRACK 06 AUDIO
TITLE “(White Man) In Hammersmith Palais (Live) [7 Sep 82, Boston]”
PERFORMER “Clash”
INDEX 01 13:10:20
TRACK 07 AUDIO
TITLE “Capital Radio (Live) [18 Feb 80, Lewisham, London]”
PERFORMER “Clash”
INDEX 01 17:38:25
TRACK 08 AUDIO
TITLE “City Of The Dead (Live) [28 Dec 78, London Lyceum]”
PERFORMER “Clash”
INDEX 01 20:36:62
TRACK 09 AUDIO
TITLE “I Fought The Law (Live) [28 Dec 78, London Lyceum]”
PERFORMER “Clash”
INDEX 01 23:23:65
TRACK 10 AUDIO
TITLE “London Calling (Live) [7 Sep 82, Boston]”
PERFORMER “Clash”
INDEX 00 25:58:10
INDEX 01 26:00:07
TRACK 11 AUDIO
TITLE “Armagideon Time (Live) [18 Feb 80, Lewisham, London]”
PERFORMER “Clash”
INDEX 01 29:29:25
TRACK 12 AUDIO
TITLE “Train In Vain (Live) [13 Jun 81, NYC]”
PERFORMER “Clash”
INDEX 01 34:34:35
TRACK 13 AUDIO
TITLE “Guns Of Brixton (Live) [13 Jun 81, NYC]”
PERFORMER “Clash”
INDEX 01 39:18:10
TRACK 14 AUDIO
TITLE “The Magnificent Seven (Live) [7 Sep 82, Boston]”
PERFORMER “Clash”
INDEX 01 42:54:15
TRACK 15 AUDIO
TITLE “Know Your Rights (Live) [7 Sep 82, Boston]”
PERFORMER “Clash”
INDEX 00 49:03:25
INDEX 01 49:03:65
TRACK 16 AUDIO
TITLE “Should I Stay Or Should I Go? (Live) [8 Sep 82, Boston]”
PERFORMER “Clash”
INDEX 01 53:08:67
TRACK 17 AUDIO
TITLE “Straight To Hell (Live) [8 Sep 82, Boston]”
PERFORMER “Clash”
INDEX 00 56:07:07
INDEX 01 56:23:52

Leave a Reply

Your email address will not be published. Required fields are marked *

This site uses Akismet to reduce spam. Learn how your comment data is processed.