The Clash – Cut The Crap




Artist: The Clash
Year: 1985
Genre: Punk
Notes: Discogs
Add. Notes:
Encoder: FLAC
Bitrate: ~900 kBit/s (44.1 kHz/16 Bit/s)
Bin/Cue incl.: Yes
Size: 276,26 MB
Password: “slam” (without ” “)


http://www.share-online.biz/dl/M7PNLTRPQCV

https://rapidgator.net/file/ec97d067651a7d9d678a204007509673

https://uploadbyte.com/ewqcwp8rn6jn

https://uploadever.com/c76xsb1w0uu4

https://justupload.io/k73wdt2p1wf3

Tracklist:

1 - Dictator - 3:00
2 - Dirty Punk - 3:13
3 - We Are The Clash - 3:04
4 - Are You Red..Y - 3:04
5 - Cool Under Heat - 3:23
6 - Movers And Shakers - 3:03
7 - This Is England - 3:52
8 - Three Card Trick - 3:10
9 - Play To Win - 3:11
10 - Fingerpoppin' - 3:15
11 - North And South - 3:33
12 - Life Is Wild - 2:39
13 - Do It Now - 3:04

EAC-Log, CUE-Sheed & NFO:

Click to open spoiler
Exact Audio Copy V0.99 prebeta 4 from 23. January 2008

EAC extraction logfile from 28. April 2008, 22:02

The Clash / Cut The Crap

Used drive : _NEC DVD_RW ND-3550A Adapter: 5 ID: 0

Read mode : Secure
Utilize accurate stream : Yes
Defeat audio cache : Yes
Make use of C2 pointers : No

Read offset correction : 48
Overread into Lead-In and Lead-Out : No
Fill up missing offset samples with silence : Yes
Delete leading and trailing silent blocks : No
Null samples used in CRC calculations : Yes
Used interface : Native Win32 interface for Win NT & 2000

Used output format : Internal WAV Routines
Sample format : 44.100 Hz; 16 Bit; Stereo

TOC of the extracted CD

Track | Start | Length | Start sector | End sector
———————————————————
1 | 0:00.00 | 3:00.67 | 0 | 13566
2 | 3:00.67 | 3:11.05 | 13567 | 27896
3 | 6:11.72 | 3:02.58 | 27897 | 41604
4 | 9:14.55 | 3:01.60 | 41605 | 55239
5 | 12:16.40 | 3:21.67 | 55240 | 70381
6 | 15:38.32 | 3:01.33 | 70382 | 83989
7 | 18:39.65 | 3:49.55 | 83990 | 101219
8 | 22:29.45 | 3:09.47 | 101220 | 115441
9 | 25:39.17 | 3:06.68 | 115442 | 129459
10 | 28:46.10 | 3:25.10 | 129460 | 144844
11 | 32:11.20 | 3:32.37 | 144845 | 160781
12 | 35:43.57 | 2:39.50 | 160782 | 172756
13 | 38:23.32 | 3:08.70 | 172757 | 186926

Range status and errors

Selected range

Filename D:\Downloads\The Clash-Cut The Crap\The Clash – Cut The Crap.wav

Peak level 97.7 %
Range quality 100.0 %
Copy CRC FA97ACCF
Copy OK

No errors occurred

AccurateRip summary

Track 1 accurately ripped (confidence 2) [2A1C7AFC]
Track 2 accurately ripped (confidence 2) [5A6A2341]
Track 3 accurately ripped (confidence 2) [7E0553D8]
Track 4 accurately ripped (confidence 2) [786F332F]
Track 5 accurately ripped (confidence 2) [1268F160]
Track 6 accurately ripped (confidence 2) [B4951802]
Track 7 accurately ripped (confidence 2) [F579BC10]
Track 8 accurately ripped (confidence 2) [A9E4FC50]
Track 9 accurately ripped (confidence 2) [784E904D]
Track 10 accurately ripped (confidence 2) [F26D9748]
Track 11 accurately ripped (confidence 2) [CDB1FE2A]
Track 12 accurately ripped (confidence 2) [5EEF7FAD]
Track 13 accurately ripped (confidence 2) [F6FFC810]

All tracks accurately ripped

End of status report

REM GENRE Punk
REM DATE 1985
REM DISCID 9B09BC0D
REM COMMENT “ExactAudioCopy v0.99pb4”
PERFORMER “The Clash”
TITLE “Cut The Crap”
FILE “1985-The Clash – Cut The Crap.ape” WAVE
TRACK 01 AUDIO
TITLE “Dictator”
PERFORMER “The Clash”
INDEX 01 00:00:00
TRACK 02 AUDIO
TITLE “Dirty Punk”
PERFORMER “The Clash”
INDEX 01 03:00:67
TRACK 03 AUDIO
TITLE “We Are The Clash”
PERFORMER “The Clash”
INDEX 01 06:11:72
TRACK 04 AUDIO
TITLE “Are You Red..Y”
PERFORMER “The Clash”
INDEX 01 09:14:55
TRACK 05 AUDIO
TITLE “Cool Under Heat”
PERFORMER “The Clash”
INDEX 01 12:16:40
TRACK 06 AUDIO
TITLE “Movers And Shakers”
PERFORMER “The Clash”
INDEX 00 15:38:31
INDEX 01 15:38:32
TRACK 07 AUDIO
TITLE “This Is England”
PERFORMER “The Clash”
INDEX 01 18:39:65
TRACK 08 AUDIO
TITLE “Three Card Trick”
PERFORMER “The Clash”
INDEX 01 22:29:45
TRACK 09 AUDIO
TITLE “Play To Win”
PERFORMER “The Clash”
INDEX 01 25:39:17
TRACK 10 AUDIO
TITLE “Fingerpoppin'”
PERFORMER “The Clash”
INDEX 01 28:46:10
TRACK 11 AUDIO
TITLE “North And South”
PERFORMER “The Clash”
INDEX 01 32:11:20
TRACK 12 AUDIO
TITLE “Life Is Wild”
PERFORMER “The Clash”
INDEX 01 35:43:57
TRACK 13 AUDIO
TITLE “Do It Now”
PERFORMER “The Clash”
INDEX 01 38:23:32

Leave a Reply

Your email address will not be published. Required fields are marked *

Enter the text from the image below
 

This site uses Akismet to reduce spam. Learn how your comment data is processed.