The Cat Empire – Two Shoes




Artist: The Cat Empire
Year: 2005
Genre: Rock
Notes: Discogs
Add. Notes:
Cover incl.: Yes
Encoder: FLAC
Bitrate: ~1000 kBit/s (44.1 kHz/16 Bit/s)
Log & Cue incl.: Yes
Size: 378,87 MB
Password: “slam” (without ” “)


All Downloads/Hosters are compatible

Download 1
Turbobit.net
Rapidgator.net
KatFile.com
UploadRar.com
Download 2
Turbobit.net
Rapidgator.net
KatFile.com
UploadRar.com

Tracklist:

1 - Sly - 3:47
2 - In My Pocket - 5:04
3 - Lullaby - 5:35
4 - The Car Song - 4:19
5 - Two Shoes - 5:13
6 - Miserere - 6:39
7 - Sol Y Sombra - 6:02
8 - Party Started - 3:46
9 - Protons, Neutrons, Electrons - 4:44
10 - Saltwater - 4:06
11 - The Night That Never End - 9:35

EAC-Log, CUE-Sheed & NFO:

Click to open spoiler
Exact Audio Copy V0.99 prebeta 5 from 4. May 2009

EAC extraction logfile from 27. November 2010, 6:06

The Cat Empire / Two Shoes

Used drive : PIONEER DVD-RW DVR-109 Adapter: 1 ID: 1

Read mode : Secure
Utilize accurate stream : Yes
Defeat audio cache : Yes
Make use of C2 pointers : No

Read offset correction : 48
Overread into Lead-In and Lead-Out : No
Fill up missing offset samples with silence : Yes
Delete leading and trailing silent blocks : No
Null samples used in CRC calculations : Yes
Used interface : Native Win32 interface for Win NT & 2000
Gap handling : Appended to previous track

Used output format : User Defined Encoder
Selected bitrate : 320 kBit/s
Quality : High
Add ID3 tag : No
Command line compressor : C:\Program Files\Exact Audio Copy\Flac\flac.exe
Additional command line options : -V -8 -T “artist=%a” -T “title=%t” -T “album=%g” -T “date=%y” -T “tracknumber=%n” -T “genre=%m” %s

TOC of the extracted CD

Track | Start | Length | Start sector | End sector
———————————————————
1 | 0:00.00 | 3:47.17 | 0 | 17041
2 | 3:47.17 | 5:04.17 | 17042 | 39858
3 | 8:51.34 | 5:35.07 | 39859 | 64990
4 | 14:26.41 | 4:19.32 | 64991 | 84447
5 | 18:45.73 | 5:13.04 | 84448 | 107926
6 | 23:59.02 | 6:39.04 | 107927 | 137855
7 | 30:38.06 | 6:02.39 | 137856 | 165044
8 | 36:40.45 | 3:46.44 | 165045 | 182038
9 | 40:27.14 | 4:44.22 | 182039 | 203360
10 | 45:11.36 | 4:06.41 | 203361 | 221851
11 | 49:18.02 | 9:35.04 | 221852 | 264980
12 | 61:25.06 | 12:32.69 | 276381 | 332849

Track 1

Filename D:\_Downloaded Programs\[UNSORTED]\The Cat Empire (2005) Two Shoes [FLAC]\01 – Sly.wav

Pre-gap length 0:00:02.00

Peak level 100.0 %
Track quality 100.0 %
Test CRC 9EC3620A
Copy CRC 9EC3620A
Accurately ripped (confidence 6) [A2505359]
Copy OK

Track 2

Filename D:\_Downloaded Programs\[UNSORTED]\The Cat Empire (2005) Two Shoes [FLAC]\02 – In My Pocket.wav

Peak level 100.0 %
Track quality 100.0 %
Test CRC 61D1E007
Copy CRC 61D1E007
Accurately ripped (confidence 6) [0C649FB6]
Copy OK

Track 3

Filename D:\_Downloaded Programs\[UNSORTED]\The Cat Empire (2005) Two Shoes [FLAC]\03 – Lullaby.wav

Peak level 100.0 %
Track quality 100.0 %
Test CRC 84818E2D
Copy CRC 84818E2D
Accurately ripped (confidence 6) [55372C31]
Copy OK

Track 4

Filename D:\_Downloaded Programs\[UNSORTED]\The Cat Empire (2005) Two Shoes [FLAC]\04 – The Car Song.wav

Pre-gap length 0:00:00.69

Peak level 100.0 %
Track quality 100.0 %
Test CRC 8D1A12A8
Copy CRC 8D1A12A8
Accurately ripped (confidence 11) [247C3833]
Copy OK

Track 5

Filename D:\_Downloaded Programs\[UNSORTED]\The Cat Empire (2005) Two Shoes [FLAC]\05 – Two Shoes.wav

Pre-gap length 0:00:00.46

Peak level 100.0 %
Track quality 100.0 %
Test CRC C6827856
Copy CRC C6827856
Accurately ripped (confidence 6) [578D7258]
Copy OK

Track 6

Filename D:\_Downloaded Programs\[UNSORTED]\The Cat Empire (2005) Two Shoes [FLAC]\06 – Miserere.wav

Pre-gap length 0:00:00.26

Peak level 100.0 %
Track quality 100.0 %
Test CRC FE83495B
Copy CRC FE83495B
Cannot be verified as accurate (confidence 5) [64DA57EE], AccurateRip returned [690257EE]
Copy OK

Track 7

Filename D:\_Downloaded Programs\[UNSORTED]\The Cat Empire (2005) Two Shoes [FLAC]\07 – Sol y Sombra.wav

Peak level 100.0 %
Track quality 100.0 %
Test CRC 54B33D9B
Copy CRC 54B33D9B
Accurately ripped (confidence 5) [072023C4]
Copy OK

Track 8

Filename D:\_Downloaded Programs\[UNSORTED]\The Cat Empire (2005) Two Shoes [FLAC]\08 – Party Started.wav

Pre-gap length 0:00:00.34

Peak level 100.0 %
Track quality 100.0 %
Test CRC D0DBB593
Copy CRC D0DBB593
Cannot be verified as accurate (confidence 6) [C0691E02], AccurateRip returned [90EB01C2]
Copy OK

Track 9

Filename D:\_Downloaded Programs\[UNSORTED]\The Cat Empire (2005) Two Shoes [FLAC]\09 – Protons, Neutrons, Electrons.wav

Pre-gap length 0:00:00.17

Peak level 100.0 %
Track quality 99.8 %
Test CRC 01A15834
Copy CRC 01A15834
Accurately ripped (confidence 4) [97846C32]
Copy OK

Track 10

Filename D:\_Downloaded Programs\[UNSORTED]\The Cat Empire (2005) Two Shoes [FLAC]\10 – Saltwater.wav

Pre-gap length 0:00:00.16

Peak level 100.0 %
Track quality 99.8 %
Test CRC 8DA302D1
Copy CRC 8DA302D1
Accurately ripped (confidence 5) [28AD5B24]
Copy OK

Track 11

Filename D:\_Downloaded Programs\[UNSORTED]\The Cat Empire (2005) Two Shoes [FLAC]\11 – The Night That Never End.wav

Pre-gap length 0:00:00.86

Peak level 100.0 %
Track quality 99.6 %
Test CRC 9030CB86
Copy CRC 9030CB86
Accurately ripped (confidence 3) [461D7735]
Copy OK

9 track(s) accurately ripped
2 track(s) could not be verified as accurate

Some tracks could not be verified as accurate

No errors occurred

End of status report

REM GENRE Reggae
REM DATE 2005
REM DISCID 9F11560C
REM COMMENT “ExactAudioCopy v0.99pb5”
FILE “The Cat Empire (2005) Two Shoes [FLAC]\01 – Sly.wav” WAVE
TRACK 01 AUDIO
INDEX 01 00:00:00
FILE “The Cat Empire (2005) Two Shoes [FLAC]\02 – In My Pocket.wav” WAVE
TRACK 02 AUDIO
INDEX 01 00:00:00
FILE “The Cat Empire (2005) Two Shoes [FLAC]\03 – Lullaby.wav” WAVE
TRACK 03 AUDIO
INDEX 01 00:00:00
TRACK 04 AUDIO
INDEX 00 05:34:30
FILE “The Cat Empire (2005) Two Shoes [FLAC]\04 – The Car Song.wav” WAVE
INDEX 01 00:00:00
TRACK 05 AUDIO
INDEX 00 04:18:72
FILE “The Cat Empire (2005) Two Shoes [FLAC]\05 – Two Shoes.wav” WAVE
INDEX 01 00:00:00
TRACK 06 AUDIO
INDEX 00 05:12:59
FILE “The Cat Empire (2005) Two Shoes [FLAC]\06 – Miserere.wav” WAVE
INDEX 01 00:00:00
FILE “The Cat Empire (2005) Two Shoes [FLAC]\07 – Sol y Sombra.wav” WAVE
TRACK 07 AUDIO
INDEX 01 00:00:00
TRACK 08 AUDIO
INDEX 00 06:02:13
FILE “The Cat Empire (2005) Two Shoes [FLAC]\08 – Party Started.wav” WAVE
INDEX 01 00:00:00
TRACK 09 AUDIO
INDEX 00 03:46:31
FILE “The Cat Empire (2005) Two Shoes [FLAC]\09 – Protons, Neutrons, Electrons.wav” WAVE
INDEX 01 00:00:00
TRACK 10 AUDIO
INDEX 00 04:44:10
FILE “The Cat Empire (2005) Two Shoes [FLAC]\10 – Saltwater.wav” WAVE
INDEX 01 00:00:00
TRACK 11 AUDIO
INDEX 00 04:05:51
FILE “The Cat Empire (2005) Two Shoes [FLAC]\11 – The Night That Never End.wav” WAVE
INDEX 01 00:00:00
TRACK 12 MODEx/2xxx
INDEX 00 09:35:04


Leave a Reply

Your email address will not be published. Required fields are marked *

Enter the text from the image below
 

This site uses Akismet to reduce spam. Learn how your comment data is processed.