The Cat Empire – Two Shoes” (International Version)




Artist: The Cat Empire
Year: 2007
Genre: Ska
Notes: Discogs
Add. Notes:
Cover incl.: Yes
Encoder: FLAC
Bitrate: ~1000 kBit/s (44.1 kHz/16 Bit/s)
Log & Cue incl.: Yes
Size: 504,13 MB
Password: “slam” (without ” “)


All Downloads/Hosters are compatible

Download 1
Turbobit.net
Rapidgator.net
KatFile.com
UploadRar.com
Download 2
Turbobit.net
Rapidgator.net
KatFile.com
UploadRar.com
Download 3
Turbobit.net
Rapidgator.net
KatFile.com
UploadRar.com

Tracklist:

1. Hello
2. How To Explain
3. The Lost Song 
4. Days Like these 
5. The Rhythm
6. The Wine Song
7. Sly
8. In My Pocket
9. Lullaby
10. The Car Song
11. Two Shoes
12. The Chariot 
13. Sol Y Sombra 
14. Party Started
15. Protons, Neutrons, Electrons

EAC-Log, CUE-Sheed & NFO:

Click to open spoiler
EAC extraction logfile from 20. March 2007, 22:59 for CD
The`Cat Empire / Two Shoes

Used drive : HL-DT-STDVDRAM GSA-4083N Adapter: 0 ID: 0
Read mode : Secure with NO C2, accurate stream, disable cache
Read offset correction : 667
Overread into Lead-In and Lead-Out : No

Used output format : C:\Program Files\FLAC\flac.exe (User Defined Encoder)
128 kBit/s
Additional command line options : -V -8 -T “artist=%a” -T “title=%t” -T “album=%g” -T “date=%y” -T “tracknumber=%n” -T “genre=%m” %s

Other options :
Fill up missing offset samples with silence : Yes
Delete leading and trailing silent blocks : No
Native Win32 interface for Win NT & 2000

Track 1
Filename E:\Rips\The Cat Empire – Two Shoes\01 – Sly.wav

Pre-gap length 0:00:02.00

Peak level 100.0 %
Track quality 100.0 %
Test CRC 5F3C1522
Copy CRC 5F3C1522
Copy OK

Track 2
Filename E:\Rips\The Cat Empire – Two Shoes\02 – In My Pocket.wav

Pre-gap length 0:00:01.00

Peak level 100.0 %
Track quality 100.0 %
Test CRC FE9C4750
Copy CRC FE9C4750
Copy OK

Track 3
Filename E:\Rips\The Cat Empire – Two Shoes\03 – Lullaby.wav

Peak level 100.0 %
Track quality 100.0 %
Test CRC F3857392
Copy CRC F3857392
Copy OK

Track 4
Filename E:\Rips\The Cat Empire – Two Shoes\04 – The`Car Song.wav

Peak level 100.0 %
Track quality 100.0 %
Test CRC 211DBEBC
Copy CRC 211DBEBC
Copy OK

Track 5
Filename E:\Rips\The Cat Empire – Two Shoes\05 – Two Shoes.wav

Peak level 100.0 %
Track quality 100.0 %
Test CRC E929C0E3
Copy CRC E929C0E3
Copy OK

Track 6
Filename E:\Rips\The Cat Empire – Two Shoes\06 – The`Chariot.wav

Pre-gap length 0:00:01.29

Peak level 100.0 %
Track quality 100.0 %
Test CRC 89748135
Copy CRC 89748135
Copy OK

Track 7
Filename E:\Rips\The Cat Empire – Two Shoes\07 – Soly Y Sombra.wav

Peak level 100.0 %
Track quality 99.9 %
Test CRC D9AEAFBB
Copy CRC D9AEAFBB
Copy OK

Track 8
Filename E:\Rips\The Cat Empire – Two Shoes\08 – Party Started.wav

Peak level 100.0 %
Track quality 100.0 %
Test CRC 192538C8
Copy CRC 192538C8
Copy OK

Track 9
Filename E:\Rips\The Cat Empire – Two Shoes\09 – Protons, Neutrons, & Electrons.wav

Peak level 100.0 %
Track quality 99.9 %
Test CRC 4E8EFAAD
Copy CRC 4E8EFAAD
Copy OK

Track 10
Filename E:\Rips\The Cat Empire – Two Shoes\10 – Hello.wav

Peak level 100.0 %
Track quality 100.0 %
Test CRC 258A0772
Copy CRC 258A0772
Copy OK

Track 11
Filename E:\Rips\The Cat Empire – Two Shoes\11 – How To Explain.wav

Peak level 100.0 %
Track quality 100.0 %
Test CRC 9D9102C2
Copy CRC 9D9102C2
Copy OK

Track 12
Filename E:\Rips\The Cat Empire – Two Shoes\12 – The`Lost Song.wav

Peak level 100.0 %
Track quality 100.0 %
Test CRC 9AF718F3
Copy CRC 9AF718F3
Copy OK

Track 13
Filename E:\Rips\The Cat Empire – Two Shoes\13 – Days Like These.wav

Peak level 100.0 %
Track quality 100.0 %
Test CRC 1597289B
Copy CRC 1597289B
Copy OK

Track 14
Filename E:\Rips\The Cat Empire – Two Shoes\14 – The`Rhythm.wav

Peak level 100.0 %
Track quality 99.9 %
Test CRC 9B039E8C
Copy CRC 9B039E8C
Copy OK

Track 15
Filename E:\Rips\The Cat Empire – Two Shoes\15 – The`Wine Song.wav

Peak level 100.0 %
Track quality 100.0 %
Test CRC C63B5EA6
Copy CRC C63B5EA6
Copy OK

No errors occured

End of status report

REM GENRE Ska
REM DATE 2006
REM DISCID C1103F0F
REM COMMENT “ExactAudioCopy v0.95b4”
PERFORMER “The`Cat Empire”
TITLE “Two Shoes”
FILE “01 – Sly.wav” WAVE
TRACK 01 AUDIO
TITLE “Sly”
PERFORMER “The`Cat Empire”
INDEX 01 00:00:00
TRACK 02 AUDIO
TITLE “In My Pocket”
PERFORMER “The`Cat Empire”
INDEX 00 03:53:70
FILE “02 – In My Pocket.wav” WAVE
INDEX 01 00:00:00
FILE “03 – Lullaby.wav” WAVE
TRACK 03 AUDIO
TITLE “Lullaby”
PERFORMER “The`Cat Empire”
INDEX 01 00:00:00
FILE “04 – The`Car Song.wav” WAVE
TRACK 04 AUDIO
TITLE “The`Car Song”
PERFORMER “The`Cat Empire”
INDEX 01 00:00:00
FILE “05 – Two Shoes.wav” WAVE
TRACK 05 AUDIO
TITLE “Two Shoes”
PERFORMER “The`Cat Empire”
INDEX 01 00:00:00
TRACK 06 AUDIO
TITLE “The`Chariot”
PERFORMER “The`Cat Empire”
INDEX 00 05:15:15
FILE “06 – The`Chariot.wav” WAVE
INDEX 01 00:00:00
FILE “07 – Soly Y Sombra.wav” WAVE
TRACK 07 AUDIO
TITLE “Soly Y Sombra”
PERFORMER “The`Cat Empire”
INDEX 01 00:00:00
FILE “08 – Party Started.wav” WAVE
TRACK 08 AUDIO
TITLE “Party Started”
PERFORMER “The`Cat Empire”
INDEX 01 00:00:00
FILE “09 – Protons, Neutrons, & Electrons.wav” WAVE
TRACK 09 AUDIO
TITLE “Protons, Neutrons, & Electrons”
PERFORMER “The`Cat Empire”
INDEX 01 00:00:00
FILE “10 – Hello.wav” WAVE
TRACK 10 AUDIO
TITLE “Hello”
PERFORMER “The`Cat Empire”
INDEX 01 00:00:00
FILE “11 – How To Explain.wav” WAVE
TRACK 11 AUDIO
TITLE “How To Explain”
PERFORMER “The`Cat Empire”
INDEX 01 00:00:00
FILE “12 – The`Lost Song.wav” WAVE
TRACK 12 AUDIO
TITLE “The`Lost Song”
PERFORMER “The`Cat Empire”
INDEX 01 00:00:00
FILE “13 – Days Like These.wav” WAVE
TRACK 13 AUDIO
TITLE “Days Like These”
PERFORMER “The`Cat Empire”
INDEX 01 00:00:00
FILE “14 – The`Rhythm.wav” WAVE
TRACK 14 AUDIO
TITLE “The`Rhythm”
PERFORMER “The`Cat Empire”
INDEX 01 00:00:00
FILE “15 – The`Wine Song.wav” WAVE
TRACK 15 AUDIO
TITLE “The`Wine Song”
PERFORMER “The`Cat Empire”
INDEX 01 00:00:00


Leave a Reply

Your email address will not be published. Required fields are marked *

This site uses Akismet to reduce spam. Learn how your comment data is processed.