The Cat Empire – So Many Nights (Special Edition)




Artist: The Cat Empire
Year: 2008
Genre: Rock
Notes: Discogs
Add. Notes: Special Edition
Cover incl.: Yes
Encoder: FLAC
Bitrate: ~1000 kBit/s (44.1 kHz/16 Bit/s)
Log & Cue incl.: Yes
Size: 394,14 MB
Password: “slam” (without ” “)


All Downloads/Hosters are compatible

Download 1
Turbobit.net
Rapidgator.net
UploadEver.com
KatFile.com
UsersDrive.com
Download 2
Turbobit.net
Rapidgator.net
UploadEver.com
KatFile.com
UsersDrive.com
Download 3
Turbobit.net
Rapidgator.net
UploadEver.com
KatFile.com
UsersDrive.com

Tracklist:

1. So Many Nights 
2. Panama 
3. Fishies 
4. The Darkness 
5. No Longer There 
6. Lonely Moon 
7. Sunny Moon 
8. So Long 
9. No Mountain 
10. Strong Coffee 
11. Til The Ocean Takes Us All 
12. Voodoo Cowboy 
13. Radio Song 
14. Won't Be Afraid 
Bonus Track
15. Wanted To Write A Love Song

EAC-Log, CUE-Sheed & NFO:

Click to open spoiler
EAC extraction logfile from 27. May 2008, 21:12 for CD
The Cat Empire / So Many Nights

Used drive : HL-DT-STDVDRAM GSA-4084N Adapter: 1 ID: 0
Read mode : Secure with NO C2, accurate stream, disable cache
Read offset correction : 667
Overread into Lead-In and Lead-Out : No

Used output format : C:\Program Files\Exact Audio Copy\flac-1.1.4-win\bin\flac.exe (User Defined Encoder)
192 kBit/s
Additional command line options : -8 -A tukey(0.25) -A gauss(0.1875) -b 4096 -V -T “artist=%a” -T “title=%t” -T “album=%g” -T “date=%y” -T “tracknumber=%n” -T “genre=%m” %s –sector-align

Other options :
Fill up missing offset samples with silence : Yes
Delete leading and trailing silent blocks : No
Installed external ASPI interface

Track 1
Filename C:\Documents and Settings\Owner\Desktop\The Cat Empire – So Many Nights [FLAC]\01 – So Many Nights.wav

Pre-gap length 0:00:02.00

Peak level 96.5 %
Track quality 100.0 %
Test CRC 1CBE7BDD
Copy CRC 1CBE7BDD
Copy OK

Track 2
Filename C:\Documents and Settings\Owner\Desktop\The Cat Empire – So Many Nights [FLAC]\02 – Panama.wav

Pre-gap length 0:00:01.20

Peak level 96.5 %
Track quality 100.0 %
Test CRC A645F2C6
Copy CRC A645F2C6
Copy OK

Track 3
Filename C:\Documents and Settings\Owner\Desktop\The Cat Empire – So Many Nights [FLAC]\03 – Fishies.wav

Peak level 96.5 %
Track quality 100.0 %
Test CRC 5E3A085F
Copy CRC 5E3A085F
Copy OK

Track 4
Filename C:\Documents and Settings\Owner\Desktop\The Cat Empire – So Many Nights [FLAC]\04 – Sunny Moon.wav

Peak level 96.5 %
Track quality 100.0 %
Test CRC 759CACF0
Copy CRC 759CACF0
Copy OK

Track 5
Filename C:\Documents and Settings\Owner\Desktop\The Cat Empire – So Many Nights [FLAC]\05 – Til the Ocean Takes Us All.wav

Peak level 96.5 %
Track quality 100.0 %
Test CRC AA5F5C50
Copy CRC AA5F5C50
Copy OK

Track 6
Filename C:\Documents and Settings\Owner\Desktop\The Cat Empire – So Many Nights [FLAC]\06 – No Mountain.wav

Peak level 96.5 %
Track quality 100.0 %
Test CRC 1FD78DA6
Copy CRC 1FD78DA6
Copy OK

Track 7
Filename C:\Documents and Settings\Owner\Desktop\The Cat Empire – So Many Nights [FLAC]\07 – So Long.wav

Peak level 96.5 %
Track quality 100.0 %
Test CRC 20D1C692
Copy CRC 20D1C692
Copy OK

Track 8
Filename C:\Documents and Settings\Owner\Desktop\The Cat Empire – So Many Nights [FLAC]\08 – No Longer There.wav

Peak level 96.5 %
Track quality 100.0 %
Test CRC AEDFD951
Copy CRC AEDFD951
Copy OK

Track 9
Filename C:\Documents and Settings\Owner\Desktop\The Cat Empire – So Many Nights [FLAC]\09 – Lonely Moon.wav

Peak level 96.5 %
Track quality 99.9 %
Test CRC E89D4EC9
Copy CRC E89D4EC9
Copy OK

Track 10
Filename C:\Documents and Settings\Owner\Desktop\The Cat Empire – So Many Nights [FLAC]\10 – Radio Song.wav

Peak level 96.5 %
Track quality 100.0 %
Test CRC D4B6C9FD
Copy CRC D4B6C9FD
Copy OK

Track 11
Filename C:\Documents and Settings\Owner\Desktop\The Cat Empire – So Many Nights [FLAC]\11 – The Darkness.wav

Peak level 96.5 %
Track quality 100.0 %
Test CRC FC0269E7
Copy CRC FC0269E7
Copy OK

Track 12
Filename C:\Documents and Settings\Owner\Desktop\The Cat Empire – So Many Nights [FLAC]\12 – Voodoo Cowboy.wav

Peak level 96.5 %
Track quality 99.9 %
Test CRC 04F5FBE6
Copy CRC 04F5FBE6
Copy OK

Track 13
Filename C:\Documents and Settings\Owner\Desktop\The Cat Empire – So Many Nights [FLAC]\13 – Strong Coffee.wav

Peak level 96.5 %
Track quality 99.9 %
Test CRC 6E4BF7CB
Copy CRC 6E4BF7CB
Copy OK

Track 14
Filename C:\Documents and Settings\Owner\Desktop\The Cat Empire – So Many Nights [FLAC]\14 – Won’t Be Afraid.wav

Peak level 96.5 %
Track quality 100.0 %
Test CRC 4B2E1E62
Copy CRC 4B2E1E62
Copy OK

Track 15
Filename C:\Documents and Settings\Owner\Desktop\The Cat Empire – So Many Nights [FLAC]\15 – Wanted to Write a Love Song.wav

Pre-gap length 0:00:02.30

Peak level 96.6 %
Track quality 100.0 %
Test CRC 15951F6C
Copy CRC 15951F6C
Copy OK

No errors occured

End of status report

REM GENRE “Aussie Rock”
REM DATE 2008
REM DISCID CE0D2F0F
REM COMMENT “ExactAudioCopy v0.95b3”
PERFORMER “The Cat Empire”
TITLE “So Many Nights”
FILE “01 – So Many Nights.wav” WAVE
TRACK 01 AUDIO
TITLE “So Many Nights”
PERFORMER “The Cat Empire”
INDEX 01 00:00:00
TRACK 02 AUDIO
TITLE “Panama”
PERFORMER “The Cat Empire”
INDEX 00 03:31:24
FILE “02 – Panama.wav” WAVE
INDEX 01 00:00:00
FILE “03 – Fishies.wav” WAVE
TRACK 03 AUDIO
TITLE “Fishies”
PERFORMER “The Cat Empire”
INDEX 01 00:00:00
FILE “04 – Sunny Moon.wav” WAVE
TRACK 04 AUDIO
TITLE “Sunny Moon”
PERFORMER “The Cat Empire”
INDEX 01 00:00:00
FILE “05 – Til the Ocean Takes Us All.wav” WAVE
TRACK 05 AUDIO
TITLE “Til the Ocean Takes Us All”
PERFORMER “The Cat Empire”
INDEX 01 00:00:00
FILE “06 – No Mountain.wav” WAVE
TRACK 06 AUDIO
TITLE “No Mountain”
PERFORMER “The Cat Empire”
INDEX 01 00:00:00
FILE “07 – So Long.wav” WAVE
TRACK 07 AUDIO
TITLE “So Long”
PERFORMER “The Cat Empire”
INDEX 01 00:00:00
FILE “08 – No Longer There.wav” WAVE
TRACK 08 AUDIO
TITLE “No Longer There”
PERFORMER “The Cat Empire”
INDEX 01 00:00:00
FILE “09 – Lonely Moon.wav” WAVE
TRACK 09 AUDIO
TITLE “Lonely Moon”
PERFORMER “The Cat Empire”
INDEX 01 00:00:00
FILE “10 – Radio Song.wav” WAVE
TRACK 10 AUDIO
TITLE “Radio Song”
PERFORMER “The Cat Empire”
INDEX 01 00:00:00
FILE “11 – The Darkness.wav” WAVE
TRACK 11 AUDIO
TITLE “The Darkness”
PERFORMER “The Cat Empire”
INDEX 01 00:00:00
FILE “12 – Voodoo Cowboy.wav” WAVE
TRACK 12 AUDIO
TITLE “Voodoo Cowboy”
PERFORMER “The Cat Empire”
INDEX 01 00:00:00
FILE “13 – Strong Coffee.wav” WAVE
TRACK 13 AUDIO
TITLE “Strong Coffee”
PERFORMER “The Cat Empire”
INDEX 01 00:00:00
FILE “14 – Won’t Be Afraid.wav” WAVE
TRACK 14 AUDIO
TITLE “Won’t Be Afraid”
PERFORMER “The Cat Empire”
INDEX 01 00:00:00
TRACK 15 AUDIO
TITLE “Wanted to Write a Love Song”
PERFORMER “The Cat Empire”
INDEX 00 04:10:47
FILE “15 – Wanted to Write a Love Song.wav” WAVE
INDEX 01 00:00:00


Leave a Reply

Your email address will not be published. Required fields are marked *

This site uses Akismet to reduce spam. Learn how your comment data is processed.