The Cat Empire – So Many Nights (Canada Edition)




Artist: The Cat Empire
Year: 2008
Genre: Rock
Notes: Discogs
Add. Notes:
Cover incl.: Yes
Encoder: FLAC
Bitrate: ~900 kBit/s (44.1 kHz/16 Bit/s)
Log & Cue incl.: Yes
Size: 392,71 MB
Password: “slam” (without ” “)


All Downloads/Hosters are compatible

Download 1
Turbobit.net
Rapidgator.net
KatFile.com
UploadRar.com
Download 2
Turbobit.net
Rapidgator.net
KatFile.com
UploadRar.com
Download 3
Turbobit.net
Rapidgator.net
KatFile.com
UploadRar.com

Tracklist:

1. So Many Nights
2. Panama 
3. Fishies
4. Sunny Moon 
5. Til The Ocean Takes Us All
6. No Mountain 
7. So Long
8. No Longer There 
9. Lonely Moon 
10. Radio Song
11. The Darkness 
12. Voodoo Cowboy 
13. Strong Coffee
14. Won't Be Afraid
Bonus Track
15. Rhyme And Reason

EAC-Log, CUE-Sheed & NFO:

Click to open spoiler
Exact Audio Copy V0.99 prebeta 5 from 4. May 2009

EAC extraction logfile from 3. July 2011, 15:04

The Cat Empire / So Many Nights

Used drive : PIONEER DVD-RW DVR-217 Adapter: 0 ID: 1

Read mode : Secure
Utilize accurate stream : Yes
Defeat audio cache : Yes
Make use of C2 pointers : No

Read offset correction : 96
Overread into Lead-In and Lead-Out : No
Fill up missing offset samples with silence : Yes
Delete leading and trailing silent blocks : No
Null samples used in CRC calculations : Yes
Used interface : Native Win32 interface for Win NT & 2000
Gap handling : Appended to previous track

Used output format : User Defined Encoder
Selected bitrate : 320 kBit/s
Quality : High
Add ID3 tag : No
Command line compressor : C:\Program Files (x86)\Exact Audio Copy\FLAC\FLAC.EXE
Additional command line options : -V -8 -T “artist=%a” -T “title=%t” -T “album=%g” -T “date=%y” -T “tracknumber=%n” -T “genre=%m” %s

TOC of the extracted CD

Track | Start | Length | Start sector | End sector
———————————————————
1 | 0:00.00 | 3:32.44 | 0 | 15943
2 | 3:32.44 | 3:15.37 | 15944 | 30605
3 | 6:48.06 | 3:12.12 | 30606 | 45017
4 | 10:00.18 | 3:07.42 | 45018 | 59084
5 | 13:07.60 | 3:22.07 | 59085 | 74241
6 | 16:29.67 | 3:26.48 | 74242 | 89739
7 | 19:56.40 | 3:27.09 | 89740 | 105273
8 | 23:23.49 | 3:56.14 | 105274 | 122987
9 | 27:19.63 | 3:47.08 | 122988 | 140020
10 | 31:06.71 | 3:06.07 | 140021 | 153977
11 | 34:13.03 | 5:20.61 | 153978 | 178038
12 | 39:33.64 | 4:02.30 | 178039 | 196218
13 | 43:36.19 | 3:33.61 | 196219 | 212254
14 | 47:10.05 | 4:13.02 | 212255 | 231231
15 | 51:23.07 | 5:33.08 | 231232 | 256214

Track 1

Filename I:\FLAC\The Cat Empire – 2008 – So Many Nights\01 – So Many Nights.wav

Pre-gap length 0:00:02.00

Peak level 96.5 %
Track quality 100.0 %
Test CRC 4630ECDD
Copy CRC 4630ECDD
Accurately ripped (confidence 3) [6E5E73E8]
Copy OK

Track 2

Filename I:\FLAC\The Cat Empire – 2008 – So Many Nights\02 – Panama.wav

Pre-gap length 0:00:01.26

Peak level 96.5 %
Track quality 100.0 %
Test CRC 702D89BD
Copy CRC 702D89BD
Accurately ripped (confidence 3) [76464C67]
Copy OK

Track 3

Filename I:\FLAC\The Cat Empire – 2008 – So Many Nights\03 – Fishies.wav

Peak level 96.5 %
Track quality 100.0 %
Test CRC 5C17ACFE
Copy CRC 5C17ACFE
Accurately ripped (confidence 3) [D2F53155]
Copy OK

Track 4

Filename I:\FLAC\The Cat Empire – 2008 – So Many Nights\04 – Sunny Moon.wav

Peak level 96.5 %
Track quality 100.0 %
Test CRC 046BA4E2
Copy CRC 046BA4E2
Accurately ripped (confidence 3) [ECBA215B]
Copy OK

Track 5

Filename I:\FLAC\The Cat Empire – 2008 – So Many Nights\05 – Til The Ocean Takes Us All.wav

Peak level 96.5 %
Track quality 100.0 %
Test CRC 911A8B8F
Copy CRC 911A8B8F
Accurately ripped (confidence 3) [094AD7B4]
Copy OK

Track 6

Filename I:\FLAC\The Cat Empire – 2008 – So Many Nights\06 – No Mountain.wav

Peak level 96.5 %
Track quality 100.0 %
Test CRC 5FDE55B7
Copy CRC 5FDE55B7
Accurately ripped (confidence 3) [156D5392]
Copy OK

Track 7

Filename I:\FLAC\The Cat Empire – 2008 – So Many Nights\07 – So Long.wav

Peak level 96.5 %
Track quality 100.0 %
Test CRC 5CC9A9FF
Copy CRC 5CC9A9FF
Accurately ripped (confidence 3) [8146C9DF]
Copy OK

Track 8

Filename I:\FLAC\The Cat Empire – 2008 – So Many Nights\08 – No Longer There.wav

Peak level 96.5 %
Track quality 100.0 %
Test CRC A4C5F649
Copy CRC A4C5F649
Accurately ripped (confidence 3) [FF8542C7]
Copy OK

Track 9

Filename I:\FLAC\The Cat Empire – 2008 – So Many Nights\09 – Lonely Moon.wav

Peak level 96.5 %
Track quality 99.9 %
Test CRC 4AB01010
Copy CRC 4AB01010
Accurately ripped (confidence 3) [57814376]
Copy OK

Track 10

Filename I:\FLAC\The Cat Empire – 2008 – So Many Nights\10 – Radio Song.wav

Peak level 96.5 %
Track quality 100.0 %
Test CRC EB83F25C
Copy CRC EB83F25C
Accurately ripped (confidence 3) [BF126F07]
Copy OK

Track 11

Filename I:\FLAC\The Cat Empire – 2008 – So Many Nights\11 – The Darkness.wav

Peak level 96.5 %
Track quality 100.0 %
Test CRC 34940EA5
Copy CRC 34940EA5
Accurately ripped (confidence 3) [2CF196B8]
Copy OK

Track 12

Filename I:\FLAC\The Cat Empire – 2008 – So Many Nights\12 – Voodoo Cowboy.wav

Peak level 96.5 %
Track quality 99.9 %
Test CRC CBFF6A38
Copy CRC CBFF6A38
Accurately ripped (confidence 3) [52CD8E33]
Copy OK

Track 13

Filename I:\FLAC\The Cat Empire – 2008 – So Many Nights\13 – Strong Coffee.wav

Peak level 96.5 %
Track quality 100.0 %
Test CRC 2580BD25
Copy CRC 2580BD25
Accurately ripped (confidence 3) [EBF0174E]
Copy OK

Track 14

Filename I:\FLAC\The Cat Empire – 2008 – So Many Nights\14 – Won’t Be Afraid.wav

Peak level 96.5 %
Track quality 99.9 %
Test CRC 130F0FC1
Copy CRC 130F0FC1
Accurately ripped (confidence 3) [2A2224D9]
Copy OK

Track 15

Filename I:\FLAC\The Cat Empire – 2008 – So Many Nights\15 – Rhyme and Reason.wav

Pre-gap length 0:00:02.40

Peak level 96.5 %
Track quality 100.0 %
Test CRC 2AF79FCB
Copy CRC 2AF79FCB
Accurately ripped (confidence 3) [DDD5C2AD]
Copy OK

All tracks accurately ripped

No errors occurred

End of status report

REM GENRE Rock
REM DATE 2008
REM DISCID CE0D580F
REM COMMENT “ExactAudioCopy v0.99pb5”
FILE “01 – So Many Nights.wav” WAVE
TRACK 01 AUDIO
INDEX 01 00:00:00
TRACK 02 AUDIO
INDEX 00 03:31:24
FILE “02 – Panama.wav” WAVE
INDEX 01 00:00:00
FILE “03 – Fishies.wav” WAVE
TRACK 03 AUDIO
INDEX 01 00:00:00
FILE “04 – Sunny Moon.wav” WAVE
TRACK 04 AUDIO
INDEX 01 00:00:00
FILE “05 – Til The Ocean Takes Us All.wav” WAVE
TRACK 05 AUDIO
INDEX 01 00:00:00
FILE “06 – No Mountain.wav” WAVE
TRACK 06 AUDIO
INDEX 01 00:00:00
FILE “07 – So Long.wav” WAVE
TRACK 07 AUDIO
INDEX 01 00:00:00
FILE “08 – No Longer There.wav” WAVE
TRACK 08 AUDIO
INDEX 01 00:00:00
FILE “09 – Lonely Moon.wav” WAVE
TRACK 09 AUDIO
INDEX 01 00:00:00
FILE “10 – Radio Song.wav” WAVE
TRACK 10 AUDIO
INDEX 01 00:00:00
FILE “11 – The Darkness.wav” WAVE
TRACK 11 AUDIO
INDEX 01 00:00:00
FILE “12 – Voodoo Cowboy.wav” WAVE
TRACK 12 AUDIO
INDEX 01 00:00:00
FILE “13 – Strong Coffee.wav” WAVE
TRACK 13 AUDIO
INDEX 01 00:00:00
FILE “14 – Won’t Be Afraid.wav” WAVE
TRACK 14 AUDIO
INDEX 01 00:00:00
TRACK 15 AUDIO
INDEX 00 04:10:47
FILE “15 – Rhyme and Reason.wav” WAVE
INDEX 01 00:00:00


Leave a Reply

Your email address will not be published. Required fields are marked *

This site uses Akismet to reduce spam. Learn how your comment data is processed.