The Cat Empire Project – Cities




Artist: The Cat Empire Project
Year: 2006
Genre: Rock
Notes: Discogs
Add. Notes:
Cover incl.: Yes
Encoder: FLAC
Bitrate: ~1000 kBit/s (44.1 kHz/16 Bit/s)
Log & Cue incl.: Yes
Size: 310,79 MB
Password: “slam” (without ” “)


All Downloads/Hosters are compatible

Download 1
Turbobit.net
Rapidgator.net
UploadEver.com
KatFile.com
UsersDrive.com
Download 2
Turbobit.net
Rapidgator.net
UploadEver.com
KatFile.com
UsersDrive.com
Download 3
Turbobit.net
Rapidgator.net
UploadEver.com
KatFile.com
UsersDrive.com

Tracklist:

 1. Cities
2. Boogaloo 
3. Siente 
4. Motion
5. Song For The Day 
6. Know Your Name 
7. Song For Elias
8. Jungle
9. Down At The 303 
10. Side To Side
11. Waltz
12. Luck Song
13. Anymore

EAC-Log, CUE-Sheed & NFO:

Click to open spoiler
Exact Audio Copy V0.99 prebeta 4 from 23. January 2008

EAC extraction logfile from 16. March 2009, 17:20

The Cat Empire Project / Cities

Used drive : PIONEER DVD-RW DVR-108 Adapter: 0 ID: 0

Read mode : Secure
Utilize accurate stream : Yes
Defeat audio cache : Yes
Make use of C2 pointers : No

Read offset correction : 48
Overread into Lead-In and Lead-Out : No
Fill up missing offset samples with silence : Yes
Delete leading and trailing silent blocks : No
Null samples used in CRC calculations : Yes
Used interface : Native Win32 interface for Win NT & 2000
Gap handling : Appended to previous track

Used output format : User Defined Encoder
Selected bitrate : 320 kBit/s
Quality : High
Add ID3 tag : No
Command line compressor : P:\Exact Audio Copy\Flac\flac.exe
Additional command line options : -V -8 -T “artist=%a” -T “title=%t” -T “album=%g” -T “date=%y” -T “tracknumber=%n” -T “genre=%m” %s

TOC of the extracted CD

Track | Start | Length | Start sector | End sector
———————————————————
1 | 0:00.00 | 3:23.07 | 0 | 15231
2 | 3:23.07 | 3:30.53 | 15232 | 31034
3 | 6:53.60 | 2:43.15 | 31035 | 43274
4 | 9:37.00 | 3:43.17 | 43275 | 60016
5 | 13:20.17 | 3:47.53 | 60017 | 77094
6 | 17:07.70 | 3:21.20 | 77095 | 92189
7 | 20:29.15 | 4:32.50 | 92190 | 112639
8 | 25:01.65 | 2:12.00 | 112640 | 122539
9 | 27:13.65 | 2:40.22 | 122540 | 134561
10 | 29:54.12 | 3:53.48 | 134562 | 152084
11 | 33:47.60 | 4:24.70 | 152085 | 171954
12 | 38:12.55 | 3:30.40 | 171955 | 187744
13 | 41:43.20 | 3:52.12 | 187745 | 205156
14 | 48:07.32 | 25:50.43 | 216557 | 332849

Track 1

Filename L:\Unsorted Downloads\The Cat Empire Project – Cities\01. Cities.wav

Pre-gap length 0:00:02.00

Peak level 100.0 %
Track quality 100.0 %
Test CRC E1D00DF8
Copy CRC E1D00DF8
Accurately ripped (confidence 4) [EE90E45D]
Copy OK

Track 2

Filename L:\Unsorted Downloads\The Cat Empire Project – Cities\02. Boogaloo.wav

Peak level 100.0 %
Track quality 100.0 %
Test CRC 51FEA045
Copy CRC 51FEA045
Accurately ripped (confidence 4) [C77D9711]
Copy OK

Track 3

Filename L:\Unsorted Downloads\The Cat Empire Project – Cities\03. Siente.wav

Peak level 100.0 %
Track quality 100.0 %
Test CRC 195012AC
Copy CRC 195012AC
Accurately ripped (confidence 3) [FCB0AD13]
Copy OK

Track 4

Filename L:\Unsorted Downloads\The Cat Empire Project – Cities\04. Motion.wav

Peak level 100.0 %
Track quality 100.0 %
Test CRC 1C4DFF90
Copy CRC 1C4DFF90
Accurately ripped (confidence 3) [54F2F863]
Copy OK

Track 5

Filename L:\Unsorted Downloads\The Cat Empire Project – Cities\05. Song For The Day.wav

Peak level 100.0 %
Track quality 100.0 %
Test CRC D6B80626
Copy CRC D6B80626
Accurately ripped (confidence 4) [3E56DA36]
Copy OK

Track 6

Filename L:\Unsorted Downloads\The Cat Empire Project – Cities\06. Know Your Name.wav

Peak level 100.0 %
Track quality 100.0 %
Test CRC FD801B29
Copy CRC FD801B29
Accurately ripped (confidence 3) [4C0CA7C5]
Copy OK

Track 7

Filename L:\Unsorted Downloads\The Cat Empire Project – Cities\07. Song For Elias.wav

Peak level 100.0 %
Track quality 100.0 %
Test CRC 0DD81F89
Copy CRC 0DD81F89
Accurately ripped (confidence 3) [E60D5269]
Copy OK

Track 8

Filename L:\Unsorted Downloads\The Cat Empire Project – Cities\08. Jungle.wav

Peak level 100.0 %
Track quality 100.0 %
Test CRC 06BCF0D9
Copy CRC 06BCF0D9
Accurately ripped (confidence 4) [FE388E3E]
Copy OK

Track 9

Filename L:\Unsorted Downloads\The Cat Empire Project – Cities\09. Down At The 303.wav

Peak level 100.0 %
Track quality 100.0 %
Test CRC 5AC8E64C
Copy CRC 5AC8E64C
Accurately ripped (confidence 4) [198D0DF9]
Copy OK

Track 10

Filename L:\Unsorted Downloads\The Cat Empire Project – Cities\10. Side To Side.wav

Peak level 100.0 %
Track quality 100.0 %
Test CRC 1B27E65A
Copy CRC 1B27E65A
Accurately ripped (confidence 4) [5F8264F5]
Copy OK

Track 11

Filename L:\Unsorted Downloads\The Cat Empire Project – Cities\11. Waltz.wav

Peak level 100.0 %
Track quality 100.0 %
Test CRC E3A71185
Copy CRC E3A71185
Accurately ripped (confidence 4) [AEB3464A]
Copy OK

Track 12

Filename L:\Unsorted Downloads\The Cat Empire Project – Cities\12. Luck Song.wav

Peak level 100.0 %
Track quality 99.9 %
Test CRC 6D3F7373
Copy CRC 6D3F7373
Accurately ripped (confidence 4) [BCEEF99B]
Copy OK

Track 13

Filename L:\Unsorted Downloads\The Cat Empire Project – Cities\13. Anymore.wav

Peak level 100.0 %
Track quality 100.0 %
Test CRC 614AC52A
Copy CRC 614AC52A
Accurately ripped (confidence 4) [03BBEFDF]
Copy OK

All tracks accurately ripped

No errors occurred

End of status report

REM GENRE Jazz+Funk
REM DATE 2006
REM DISCID B911560E
REM COMMENT “ExactAudioCopy v0.99pb4”
PERFORMER “The Cat Empire Project”
TITLE “Cities”
FILE “01. Cities.wav” WAVE
TRACK 01 AUDIO
TITLE “Cities”
PERFORMER “The Cat Empire Project”
INDEX 01 00:00:00
FILE “02. Boogaloo.wav” WAVE
TRACK 02 AUDIO
TITLE “Boogaloo”
PERFORMER “The Cat Empire Project”
INDEX 01 00:00:00
FILE “03. Siente.wav” WAVE
TRACK 03 AUDIO
TITLE “Siente”
PERFORMER “The Cat Empire Project”
INDEX 01 00:00:00
FILE “04. Motion.wav” WAVE
TRACK 04 AUDIO
TITLE “Motion”
PERFORMER “The Cat Empire Project”
INDEX 01 00:00:00
FILE “05. Song For The Day.wav” WAVE
TRACK 05 AUDIO
TITLE “Song For The Day”
PERFORMER “The Cat Empire Project”
INDEX 01 00:00:00
FILE “06. Know Your Name.wav” WAVE
TRACK 06 AUDIO
TITLE “Know Your Name”
PERFORMER “The Cat Empire Project”
INDEX 01 00:00:00
FILE “07. Song For Elias.wav” WAVE
TRACK 07 AUDIO
TITLE “Song For Elias”
PERFORMER “The Cat Empire Project”
INDEX 01 00:00:00
FILE “08. Jungle.wav” WAVE
TRACK 08 AUDIO
TITLE “Jungle”
PERFORMER “The Cat Empire Project”
INDEX 01 00:00:00
FILE “09. Down At The 303.wav” WAVE
TRACK 09 AUDIO
TITLE “Down At The 303”
PERFORMER “The Cat Empire Project”
INDEX 01 00:00:00
FILE “10. Side To Side.wav” WAVE
TRACK 10 AUDIO
TITLE “Side To Side”
PERFORMER “The Cat Empire Project”
INDEX 01 00:00:00
FILE “11. Waltz.wav” WAVE
TRACK 11 AUDIO
TITLE “Waltz”
PERFORMER “The Cat Empire Project”
INDEX 01 00:00:00
FILE “12. Luck Song.wav” WAVE
TRACK 12 AUDIO
TITLE “Luck Song”
PERFORMER “The Cat Empire Project”
INDEX 01 00:00:00
FILE “13. Anymore.wav” WAVE
TRACK 13 AUDIO
TITLE “Anymore”
PERFORMER “The Cat Empire Project”
INDEX 01 00:00:00
TRACK 14 MODEx/2xxx
TITLE “Data”
PERFORMER “The Cat Empire Project”
INDEX 00 03:52:12


Leave a Reply

Your email address will not be published. Required fields are marked *

This site uses Akismet to reduce spam. Learn how your comment data is processed.