The Cat Empire – Live on Earth




Artist: The Cat Empire
Year: 2009
Genre: Ska
Notes: Discogs
Add. Notes:
Cover incl.: Yes
Encoder: FLAC
Bitrate: ~1000 kBit/s (44.1 kHz/16 Bit/s)
Log & Cue incl.: Yes
Size: 974,71 MB
Password: “slam” (without ” “)


All Downloads/Hosters are compatible

Download 1
Turbobit.net
Rapidgator.net
KatFile.com
UploadRar.com
Download 2
Turbobit.net
Rapidgator.net
KatFile.com
UploadRar.com
Download 3
Turbobit.net
Rapidgator.net
KatFile.com
UploadRar.com

Tracklist:

1-1 - Fishies - 5:01
1-2 - The Car Song - 9:21
1-3 - So Many Nights - 4:09
1-4 - Lonely Moon - 4:33
1-5 - How To Explain? - 5:51
1-6 - Days Like These - 4:21
1-7 - Dumb Things - 3:51
1-8 - The Lost Song - 7:45
1-9 - The Rhythm - 5:17
1-10 - The Wine Song - 10:40
1-11 - All That Talking - 6:50
2-1 - The Chariot - 7:17
2-2 - 'Til The Ocean Takes Us All - 4:08
2-3 - Sly - 5:33
2-4 - Hello - 3:55
2-5 - Hotel California - 3:55
2-6 - Rhyme And Reason - 6:34
2-7 - Two Shoes - 5:29
2-8 - In My Pocket - 12:06
2-9 - No Longer There - 3:51
2-10 - The Darkness - 9:24
2-11 - Sunny Moon - 6:26

EAC-Log, CUE-Sheed & NFO:

Click to open spoiler
Exact Audio Copy V0.99 prebeta 4 from 23. January 2008

EAC extraction logfile from 27. February 2009, 14:21

The Cat Empire / Live On Earth

Used drive : ASUS DRW-1814BLT Adapter: 1 ID: 0

Read mode : Secure
Utilize accurate stream : Yes
Defeat audio cache : Yes
Make use of C2 pointers : No

Read offset correction : 6
Overread into Lead-In and Lead-Out : No
Fill up missing offset samples with silence : Yes
Delete leading and trailing silent blocks : No
Null samples used in CRC calculations : Yes
Used interface : Native Win32 interface for Win NT & 2000
Gap handling : Appended to previous track

Used output format : User Defined Encoder
Selected bitrate : 160 kBit/s
Quality : High
Add ID3 tag : No
Command line compressor : C:\Program Files\Exact Audio Copy\Flac\flac.exe
Additional command line options : -V -8 -T “artist=%a” -T “title=%t” -T “album=%g” -T “date=%y” -T “tracknumber=%n” -T “genre=%m” %s

TOC of the extracted CD

Track | Start | Length | Start sector | End sector
———————————————————
1 | 0:00.00 | 5:00.36 | 0 | 22535
2 | 5:00.36 | 9:20.70 | 22536 | 64605
3 | 14:21.31 | 4:09.30 | 64606 | 83310
4 | 18:30.61 | 4:33.16 | 83311 | 103801
5 | 23:04.02 | 5:51.25 | 103802 | 130151
6 | 28:55.27 | 4:20.55 | 130152 | 149706
7 | 33:16.07 | 3:50.50 | 149707 | 167006
8 | 37:06.57 | 7:45.27 | 167007 | 201908
9 | 44:52.09 | 5:17.11 | 201909 | 225694
10 | 50:09.20 | 10:40.03 | 225695 | 273697
11 | 60:49.23 | 6:50.10 | 273698 | 304457

Track 1

Filename H:\FLAC\The Cat Empire – Live on Earth\The Cat Empire\Live On Earth\01 – Fishies.wav

Pre-gap length 0:00:02.00

Peak level 100.0 %
Track quality 99.9 %
Test CRC E8644564
Copy CRC E8644564
Copy OK

Track 2

Filename H:\FLAC\The Cat Empire – Live on Earth\The Cat Empire\Live On Earth\02 – The Car Song.wav

Peak level 100.0 %
Track quality 100.0 %
Test CRC ED627E0C
Copy CRC ED627E0C
Copy OK

Track 3

Filename H:\FLAC\The Cat Empire – Live on Earth\The Cat Empire\Live On Earth\03 – So Many Nights.wav

Pre-gap length 0:09:20.93

Peak level 98.8 %
Track quality 99.9 %
Test CRC 62A9C48D
Copy CRC 62A9C48D
Copy OK

Track 4

Filename H:\FLAC\The Cat Empire – Live on Earth\The Cat Empire\Live On Earth\04 – Lonely Moon.wav

Pre-gap length 0:13:30.33

Peak level 99.5 %
Track quality 100.0 %
Test CRC AD963D9D
Copy CRC AD963D9D
Copy OK

Track 5

Filename H:\FLAC\The Cat Empire – Live on Earth\The Cat Empire\Live On Earth\05 – How to Explain .wav

Pre-gap length 0:18:03.54

Peak level 100.0 %
Track quality 99.9 %
Test CRC 1705298F
Copy CRC 1705298F
Copy OK

Track 6

Filename H:\FLAC\The Cat Empire – Live on Earth\The Cat Empire\Live On Earth\06 – Days Like These.wav

Pre-gap length 0:23:54.88

Peak level 100.0 %
Track quality 100.0 %
Test CRC 98DF7C60
Copy CRC 98DF7C60
Copy OK

Track 7

Filename H:\FLAC\The Cat Empire – Live on Earth\The Cat Empire\Live On Earth\07 – Dumb Things.wav

Pre-gap length 0:28:15.61

Peak level 100.0 %
Track quality 100.0 %
Test CRC 163AC6EB
Copy CRC 163AC6EB
Copy OK

Track 8

Filename H:\FLAC\The Cat Empire – Live on Earth\The Cat Empire\Live On Earth\08 – The Lost Song.wav

Pre-gap length 0:32:06.28

Peak level 100.0 %
Track quality 100.0 %
Test CRC EB3F6E4F
Copy CRC EB3F6E4F
Copy OK

Track 9

Filename H:\FLAC\The Cat Empire – Live on Earth\The Cat Empire\Live On Earth\09 – The Rhythm.wav

Pre-gap length 0:39:51.64

Peak level 100.0 %
Track quality 99.7 %
Test CRC B95AC191
Copy CRC B95AC191
Copy OK

Track 10

Filename H:\FLAC\The Cat Empire – Live on Earth\The Cat Empire\Live On Earth\10 – The Wine Song.wav

Pre-gap length 0:45:08.78

Peak level 100.0 %
Track quality 100.0 %
Test CRC 4EFFDD89
Copy CRC 4EFFDD89
Copy OK

Track 11

Filename H:\FLAC\The Cat Empire – Live on Earth\The Cat Empire\Live On Earth\11 – All That Talking.wav

Pre-gap length 0:55:48.82

Peak level 98.2 %
Track quality 99.9 %
Test CRC CED9F0D0
Copy CRC CED9F0D0
Copy OK

No errors occurred

End of status report

Exact Audio Copy V0.99 prebeta 4 from 23. January 2008

EAC extraction logfile from 27. February 2009, 15:29

The Cat Empire / Live On Earth

Used drive : ASUS DRW-1814BLT Adapter: 1 ID: 0

Read mode : Secure
Utilize accurate stream : Yes
Defeat audio cache : Yes
Make use of C2 pointers : No

Read offset correction : 6
Overread into Lead-In and Lead-Out : No
Fill up missing offset samples with silence : Yes
Delete leading and trailing silent blocks : No
Null samples used in CRC calculations : Yes
Used interface : Native Win32 interface for Win NT & 2000
Gap handling : Appended to previous track

Used output format : User Defined Encoder
Selected bitrate : 160 kBit/s
Quality : High
Add ID3 tag : No
Command line compressor : C:\Program Files\Exact Audio Copy\Flac\flac.exe
Additional command line options : -V -8 -T “artist=%a” -T “title=%t” -T “album=%g” -T “date=%y” -T “tracknumber=%n” -T “genre=%m” %s

TOC of the extracted CD

Track | Start | Length | Start sector | End sector
———————————————————
1 | 0:00.00 | 7:16.69 | 0 | 32768
2 | 7:16.69 | 4:07.70 | 32769 | 51363
3 | 11:24.64 | 5:33.23 | 51364 | 76361
4 | 16:58.12 | 3:54.33 | 76362 | 93944
5 | 20:52.45 | 3:54.47 | 93945 | 111541
6 | 24:47.17 | 6:33.74 | 111542 | 141090
7 | 31:21.16 | 5:28.49 | 141091 | 165739
8 | 36:49.65 | 12:05.71 | 165740 | 220185
9 | 48:55.61 | 3:51.32 | 220186 | 237542
10 | 52:47.18 | 9:23.60 | 237543 | 279827
11 | 62:11.03 | 6:26.06 | 279828 | 308783

Track 1

Filename H:\FLAC\The Cat Empire – Live on Earth\Disc 2\The Cat Empire\Live On Earth\01 – The Chariot.wav

Pre-gap length 0:00:02.00

Peak level 100.0 %
Track quality 100.0 %
Test CRC 7A7DD9AB
Copy CRC 7A7DD9AB
Copy OK

Track 2

Filename H:\FLAC\The Cat Empire – Live on Earth\Disc 2\The Cat Empire\Live On Earth\02 – ‘Til the Ocean Takes Us All.wav

Peak level 100.0 %
Track quality 100.0 %
Test CRC 3DCB852E
Copy CRC 3DCB852E
Copy OK

Track 3

Filename H:\FLAC\The Cat Empire – Live on Earth\Disc 2\The Cat Empire\Live On Earth\03 – Sly.wav

Peak level 100.0 %
Track quality 100.0 %
Test CRC BDE20F16
Copy CRC BDE20F16
Copy OK

Track 4

Filename H:\FLAC\The Cat Empire – Live on Earth\Disc 2\The Cat Empire\Live On Earth\04 – Hello.wav

Peak level 100.0 %
Track quality 99.9 %
Test CRC 6722CE32
Copy CRC 6722CE32
Copy OK

Track 5

Filename H:\FLAC\The Cat Empire – Live on Earth\Disc 2\The Cat Empire\Live On Earth\05 – Hotel California.wav

Peak level 100.0 %
Track quality 100.0 %
Test CRC 6CEABB64
Copy CRC 6CEABB64
Copy OK

Track 6

Filename H:\FLAC\The Cat Empire – Live on Earth\Disc 2\The Cat Empire\Live On Earth\06 – Rhyme and Reason.wav

Peak level 100.0 %
Track quality 100.0 %
Test CRC A3D48F7C
Copy CRC A3D48F7C
Copy OK

Track 7

Filename H:\FLAC\The Cat Empire – Live on Earth\Disc 2\The Cat Empire\Live On Earth\07 – Two Shoes.wav

Peak level 100.0 %
Track quality 100.0 %
Test CRC 6C0255FB
Copy CRC 6C0255FB
Copy OK

Track 8

Filename H:\FLAC\The Cat Empire – Live on Earth\Disc 2\The Cat Empire\Live On Earth\08 – In My Pocket.wav

Peak level 100.0 %
Track quality 100.0 %
Test CRC AF2501B1
Copy CRC AF2501B1
Copy OK

Track 9

Filename H:\FLAC\The Cat Empire – Live on Earth\Disc 2\The Cat Empire\Live On Earth\09 – No Longer There.wav

Peak level 100.0 %
Track quality 99.9 %
Test CRC 5E19F757
Copy CRC 5E19F757
Copy OK

Track 10

Filename H:\FLAC\The Cat Empire – Live on Earth\Disc 2\The Cat Empire\Live On Earth\10 – The Darkness.wav

Peak level 100.0 %
Track quality 100.0 %
Test CRC 9EA53804
Copy CRC 9EA53804
Copy OK

Track 11

Filename H:\FLAC\The Cat Empire – Live on Earth\Disc 2\The Cat Empire\Live On Earth\11 – Sunny Moon.wav

Peak level 100.0 %
Track quality 100.0 %
Test CRC A5F9AC93
Copy CRC A5F9AC93
Copy OK

No errors occurred

End of status report

REM DATE 2009
REM DISCID 930FDB0B
REM COMMENT “ExactAudioCopy v0.99pb4”
PERFORMER “The Cat Empire”
TITLE “Live On Earth”
FILE “The Cat Empire\Live On Earth\01 – Fishies.wav” WAVE
TRACK 01 AUDIO
TITLE “Fishies”
PERFORMER “The Cat Empire”
INDEX 01 00:00:00
FILE “The Cat Empire\Live On Earth\02 – The Car Song.wav” WAVE
TRACK 02 AUDIO
TITLE “The Car Song”
PERFORMER “The Cat Empire”
INDEX 01 00:00:00
TRACK 03 AUDIO
TITLE “So Many Nights”
PERFORMER “The Cat Empire”
INDEX 00 00:00:00
FILE “The Cat Empire\Live On Earth\03 – So Many Nights.wav” WAVE
INDEX 01 00:00:00
TRACK 04 AUDIO
TITLE “Lonely Moon”
PERFORMER “The Cat Empire”
INDEX 00 01:40:05
FILE “The Cat Empire\Live On Earth\04 – Lonely Moon.wav” WAVE
INDEX 01 00:00:00
TRACK 05 AUDIO
TITLE “How to Explain?”
PERFORMER “The Cat Empire”
INDEX 00 97:30:50
FILE “The Cat Empire\Live On Earth\05 – How to Explain .wav” WAVE
INDEX 01 00:00:00
TRACK 06 AUDIO
TITLE “Days Like These”
PERFORMER “The Cat Empire”
INDEX 00 92:57:34
FILE “The Cat Empire\Live On Earth\06 – Days Like These.wav” WAVE
INDEX 01 00:00:00
TRACK 07 AUDIO
TITLE “Dumb Things”
PERFORMER “The Cat Empire”
INDEX 00 87:06:09
FILE “The Cat Empire\Live On Earth\07 – Dumb Things.wav” WAVE
INDEX 01 00:00:00
TRACK 08 AUDIO
TITLE “The Lost Song”
PERFORMER “The Cat Empire”
INDEX 00 82:45:29
FILE “The Cat Empire\Live On Earth\08 – The Lost Song.wav” WAVE
INDEX 01 00:00:00
TRACK 09 AUDIO
TITLE “The Rhythm”
PERFORMER “The Cat Empire”
INDEX 00 78:54:54
FILE “The Cat Empire\Live On Earth\09 – The Rhythm.wav” WAVE
INDEX 01 00:00:00
TRACK 10 AUDIO
TITLE “The Wine Song”
PERFORMER “The Cat Empire”
INDEX 00 71:09:27
FILE “The Cat Empire\Live On Earth\10 – The Wine Song.wav” WAVE
INDEX 01 00:00:00
TRACK 11 AUDIO
TITLE “All That Talking”
PERFORMER “The Cat Empire”
INDEX 00 65:52:16
FILE “The Cat Empire\Live On Earth\11 – All That Talking.wav” WAVE
INDEX 01 00:00:00

REM DATE 2009
REM DISCID 9C10150B
REM COMMENT “ExactAudioCopy v0.99pb4”
PERFORMER “The Cat Empire”
TITLE “Live On Earth”
FILE “The Cat Empire\Live On Earth\01 – The Chariot.wav” WAVE
TRACK 01 AUDIO
TITLE “The Chariot”
PERFORMER “The Cat Empire”
INDEX 01 00:00:00
FILE “The Cat Empire\Live On Earth\02 – ‘Til the Ocean Takes Us All.wav” WAVE
TRACK 02 AUDIO
TITLE “‘Til the Ocean Takes Us All”
PERFORMER “The Cat Empire”
INDEX 01 00:00:00
FILE “The Cat Empire\Live On Earth\03 – Sly.wav” WAVE
TRACK 03 AUDIO
TITLE “Sly”
PERFORMER “The Cat Empire”
INDEX 01 00:00:00
FILE “The Cat Empire\Live On Earth\04 – Hello.wav” WAVE
TRACK 04 AUDIO
TITLE “Hello”
PERFORMER “The Cat Empire”
INDEX 01 00:00:00
FILE “The Cat Empire\Live On Earth\05 – Hotel California.wav” WAVE
TRACK 05 AUDIO
TITLE “Hotel California”
PERFORMER “The Cat Empire”
INDEX 01 00:00:00
FILE “The Cat Empire\Live On Earth\06 – Rhyme and Reason.wav” WAVE
TRACK 06 AUDIO
TITLE “Rhyme and Reason”
PERFORMER “The Cat Empire”
INDEX 01 00:00:00
FILE “The Cat Empire\Live On Earth\07 – Two Shoes.wav” WAVE
TRACK 07 AUDIO
TITLE “Two Shoes”
PERFORMER “The Cat Empire”
INDEX 01 00:00:00
FILE “The Cat Empire\Live On Earth\08 – In My Pocket.wav” WAVE
TRACK 08 AUDIO
TITLE “In My Pocket”
PERFORMER “The Cat Empire”
INDEX 01 00:00:00
FILE “The Cat Empire\Live On Earth\09 – No Longer There.wav” WAVE
TRACK 09 AUDIO
TITLE “No Longer There”
PERFORMER “The Cat Empire”
INDEX 01 00:00:00
FILE “The Cat Empire\Live On Earth\10 – The Darkness.wav” WAVE
TRACK 10 AUDIO
TITLE “The Darkness”
PERFORMER “The Cat Empire”
INDEX 01 00:00:00
FILE “The Cat Empire\Live On Earth\11 – Sunny Moon.wav” WAVE
TRACK 11 AUDIO
TITLE “Sunny Moon”
PERFORMER “The Cat Empire”
INDEX 01 00:00:00


Leave a Reply

Your email address will not be published. Required fields are marked *

This site uses Akismet to reduce spam. Learn how your comment data is processed.