The Cat Empire – Live at Martyrs’




Artist: The Cat Empire
Year: 2007
Genre: Rock
Notes: Discogs
Add. Notes:
Cover incl.: Yes
Encoder: FLAC
Bitrate: ~900 kBit/s (44.1 kHz/16 Bit/s)
Log & Cue incl.: Yes
Size: 264,96 MB
Password: “slam” (without ” “)


All Downloads/Hosters are compatible

Download 1
Turbobit.net
Rapidgator.net
KatFile.com
UploadRar.com
Download 2
Turbobit.net
Rapidgator.net
KatFile.com
UploadRar.com
Download 3
Turbobit.net
Rapidgator.net
KatFile.com
UploadRar.com

Tracklist:

1 - Sly - 5:01
2 - The Rhythm - 8:48
3 - The Car Song - 12:03
4 - Two Shoes - 5:18
5 - The Chariot - 9:25

EAC-Log, CUE-Sheed & NFO:

Click to open spoiler
Exact Audio Copy V0.99 prebeta 5 from 4. May 2009

EAC extraction logfile from 25. June 2011, 20:09

The Cat Empire / Live at Martyrs’

Used drive : PIONEER DVD-RW DVR-217 Adapter: 0 ID: 1

Read mode : Secure
Utilize accurate stream : Yes
Defeat audio cache : Yes
Make use of C2 pointers : No

Read offset correction : 96
Overread into Lead-In and Lead-Out : No
Fill up missing offset samples with silence : Yes
Delete leading and trailing silent blocks : No
Null samples used in CRC calculations : Yes
Used interface : Native Win32 interface for Win NT & 2000
Gap handling : Appended to previous track

Used output format : User Defined Encoder
Selected bitrate : 320 kBit/s
Quality : High
Add ID3 tag : No
Command line compressor : C:\Program Files (x86)\Exact Audio Copy\FLAC\FLAC.EXE
Additional command line options : -V -8 -T “artist=%a” -T “title=%t” -T “album=%g” -T “date=%y” -T “tracknumber=%n” -T “genre=%m” %s

TOC of the extracted CD

Track | Start | Length | Start sector | End sector
———————————————————
1 | 0:00.00 | 5:03.50 | 0 | 22774
2 | 5:03.50 | 8:48.51 | 22775 | 62425
3 | 13:52.26 | 11:56.36 | 62426 | 116161
4 | 25:48.62 | 5:25.65 | 116162 | 140601
5 | 31:14.52 | 9:25.28 | 140602 | 183004

Track 1

Filename I:\FLAC\The Cat Empire – 2007 – Live at Martyrs’\01 – Sly.wav

Pre-gap length 0:00:02.00

Peak level 100.0 %
Track quality 100.0 %
Test CRC 3EEB9178
Copy CRC 3EEB9178
Track not present in AccurateRip database
Copy OK

Track 2

Filename I:\FLAC\The Cat Empire – 2007 – Live at Martyrs’\02 – The Rhythm.wav

Peak level 100.0 %
Track quality 100.0 %
Test CRC 0C68B864
Copy CRC 0C68B864
Track not present in AccurateRip database
Copy OK

Track 3

Filename I:\FLAC\The Cat Empire – 2007 – Live at Martyrs’\03 – The Car Song.wav

Peak level 100.0 %
Track quality 99.6 %
Test CRC 22FF1499
Copy CRC 22FF1499
Track not present in AccurateRip database
Copy OK

Track 4

Filename I:\FLAC\The Cat Empire – 2007 – Live at Martyrs’\04 – Two Shoes.wav

Peak level 100.0 %
Track quality 100.0 %
Test CRC 9812A1E0
Copy CRC 9812A1E0
Track not present in AccurateRip database
Copy OK

Track 5

Filename I:\FLAC\The Cat Empire – 2007 – Live at Martyrs’\05 – The Chariot.wav

Peak level 100.0 %
Track quality 100.0 %
Test CRC 5F743090
Copy CRC 5F743090
Track not present in AccurateRip database
Copy OK

None of the tracks are present in the AccurateRip database

No errors occurred

End of status report

REM GENRE Jazz
REM DATE 2007
REM DISCID 3A098805
REM COMMENT “ExactAudioCopy v0.99pb5”
FILE “01 – Sly.wav” WAVE
TRACK 01 AUDIO
INDEX 01 00:00:00
FILE “02 – The Rhythm.wav” WAVE
TRACK 02 AUDIO
INDEX 01 00:00:00
FILE “03 – The Car Song.wav” WAVE
TRACK 03 AUDIO
INDEX 01 00:00:00
FILE “04 – Two Shoes.wav” WAVE
TRACK 04 AUDIO
INDEX 01 00:00:00
FILE “05 – The Chariot.wav” WAVE
TRACK 05 AUDIO
INDEX 01 00:00:00


Leave a Reply

Your email address will not be published. Required fields are marked *

This site uses Akismet to reduce spam. Learn how your comment data is processed.